<?xml version="1.0" standalone="no"?>
<!DOCTYPE svg PUBLIC "-//W3C//DTD SVG 1.1//EN" "http://www.w3.org/Graphics/SVG/1.1/DTD/svg11.dtd" >
<svg xmlns="http://www.w3.org/2000/svg" xmlns:xlink="http://www.w3.org/1999/xlink" version="1.1">
<metadata>
Created by FontForge 20150318 at Thu May 21 17:52:45 2015
 By uniteet7
CorporateS-Regular
</metadata>
<defs>
<font id="CorporateS-Regular" horiz-adv-x="500" >
  <font-face 
    font-family="CorporateS-Regular"
    font-weight="500"
    font-stretch="normal"
    units-per-em="1000"
    panose-1="0 0 0 0 0 0 0 0 0 0"
    ascent="800"
    descent="-200"
    x-height="474"
    cap-height="667"
    bbox="-179 -250 886 883"
    underline-thickness="20"
    underline-position="-156"
    stemh="62"
    stemv="72"
    unicode-range="U+0020-FB02"
  />
<missing-glyph horiz-adv-x="280" 
 />
    <glyph glyph-name=".notdef" horiz-adv-x="280" 
 />
    <glyph glyph-name="space" unicode=" " horiz-adv-x="250" 
d="M0 0z" />
    <glyph glyph-name="exclam" unicode="!" horiz-adv-x="249" 
d="M94 187l-8 467h77l-12 -467h-57zM66 47c0 32 26 57 58 57s58 -25 58 -57s-26 -57 -58 -57s-58 26 -58 57z" />
    <glyph glyph-name="quotedbl" unicode="&#x22;" horiz-adv-x="352" 
d="M145 667l-12 -268h-52l-11 268h75zM282 667l-12 -268h-51l-12 268h75z" />
    <glyph glyph-name="numbersign" unicode="#" horiz-adv-x="600" 
d="M429 267h115l-9 -55h-115l-33 -212h-63l34 212h-149l-34 -212h-63l34 212h-114l9 55h114l22 145h-113l8 55h114l32 200h63l-32 -200h149l31 200h63l-31 -200h115l-9 -55h-115zM366 267l23 145h-149l-23 -145h149z" />
    <glyph glyph-name="dollar" unicode="$" horiz-adv-x="533" 
d="M390 518c-7 55 -41 86 -103 94v-233c65 -23 108 -43 136 -65c42 -33 65 -80 65 -136c0 -107 -78 -180 -201 -189v-72h-40v72c-64 5 -107 21 -142 53c-40 37 -56 78 -60 149h72c7 -85 45 -125 130 -137v259l-8 4c-87 31 -98 37 -127 61c-32 27 -51 71 -51 120
c0 100 73 171 186 179v66h40v-66c50 -4 80 -14 114 -38c41 -29 59 -65 64 -121h-75zM247 393v219c-72 -10 -113 -49 -113 -108c0 -51 25 -77 98 -105zM287 299v-245c78 7 125 51 125 116c0 59 -30 93 -109 123z" />
    <glyph glyph-name="percent" unicode="%" horiz-adv-x="573" 
d="M60 0l391 667h62l-392 -667h-61zM296 155c0 90 55 160 126 160c72 0 127 -70 127 -160c0 -91 -55 -160 -127 -160c-71 0 -126 70 -126 160zM24 512c0 90 55 160 126 160s127 -70 127 -160c0 -91 -55 -161 -127 -161c-71 0 -126 70 -126 161zM492 155
c0 64 -29 110 -70 110c-40 0 -69 -47 -69 -110c0 -64 29 -110 69 -110c41 0 70 46 70 110zM220 512c0 63 -29 110 -70 110c-40 0 -69 -47 -69 -110c0 -64 29 -110 69 -110c41 0 70 46 70 110z" />
    <glyph glyph-name="ampersand" unicode="&#x26;" horiz-adv-x="592" 
d="M412 171c18 35 24 68 24 136h60v-22c0 -73 -12 -122 -43 -170l85 -115h-81l-46 63c-46 -49 -95 -69 -166 -69c-121 0 -202 72 -202 179c0 75 34 125 135 201l-14 18c-51 67 -63 94 -63 137c0 76 60 130 146 130c81 0 134 -49 134 -125c0 -62 -29 -109 -109 -173zM222 426
c2 -4 6 -9 11 -15c59 46 83 82 83 125c0 39 -29 66 -71 66c-43 0 -76 -29 -76 -68c0 -31 7 -47 53 -108zM373 114l-154 206c-80 -59 -105 -94 -105 -149c0 -68 57 -118 134 -118c49 0 92 21 125 61z" />
    <glyph glyph-name="quoteright" unicode="&#x2019;" horiz-adv-x="227" 
d="M171 605c0 -47 -23 -97 -70 -152h-61c41 41 64 78 70 117c-3 -1 -5 -1 -7 -1c-29 0 -52 24 -52 53c0 31 26 56 58 56c37 0 62 -29 62 -73z" />
    <glyph glyph-name="parenleft" unicode="(" horiz-adv-x="281" 
d="M123 550c20 53 33 75 70 122h55c-72 -101 -107 -246 -107 -434c0 -191 36 -338 107 -438h-55c-37 46 -49 68 -69 120c-34 92 -52 198 -52 316c0 117 17 223 51 314z" />
    <glyph glyph-name="parenright" unicode=")" horiz-adv-x="281" 
d="M157 -77c-19 -54 -32 -76 -70 -123h-54c71 101 107 246 107 434c0 191 -36 338 -107 438h54c37 -46 50 -68 70 -120c34 -91 51 -198 51 -316c0 -117 -17 -222 -51 -313z" />
    <glyph glyph-name="asterisk" unicode="*" 
d="M110 565l116 -38v123h48v-123l116 38l15 -45l-117 -38l72 -99l-38 -28l-72 99l-72 -99l-38 28l72 99l-117 38z" />
    <glyph glyph-name="plus" unicode="+" horiz-adv-x="533" 
d="M294 555v-193h186v-53h-186v-193h-55v193h-186v53h186v193h55z" />
    <glyph glyph-name="comma" unicode="," horiz-adv-x="239" 
d="M179 34c0 -55 -25 -108 -82 -180h-63c46 48 74 97 81 145h-8c-29 0 -53 25 -53 55c0 32 27 58 60 58c39 0 65 -31 65 -78z" />
    <glyph glyph-name="hyphen" unicode="-" horiz-adv-x="274" 
d="M0 224v55h274v-55h-274z" />
    <glyph glyph-name="period" unicode="." horiz-adv-x="255" 
d="M70 47c0 32 25 57 57 57c33 0 59 -25 59 -57s-27 -57 -59 -57c-31 0 -57 25 -57 57z" />
    <glyph glyph-name="slash" unicode="/" horiz-adv-x="570" 
d="M124 -149h-70l392 816h70z" />
    <glyph glyph-name="zero" unicode="0" horiz-adv-x="533" 
d="M53 326c0 208 80 334 214 334c133 0 213 -126 213 -334c0 -209 -80 -335 -213 -335c-134 0 -214 126 -214 335zM363 540c-20 38 -55 59 -96 59c-42 0 -76 -21 -96 -59c-28 -52 -43 -127 -43 -214s15 -163 43 -215c20 -37 54 -58 96 -58c41 0 76 21 96 58
c27 52 43 128 43 215c0 86 -16 162 -43 214z" />
    <glyph glyph-name="one" unicode="1" horiz-adv-x="533" 
d="M290 507h-118v47c87 4 122 30 139 101h50v-655h-71v507z" />
    <glyph glyph-name="two" unicode="2" horiz-adv-x="533" 
d="M266 596c-74 0 -114 -45 -120 -134h-67c2 128 70 198 191 198c107 0 178 -63 178 -158c0 -31 -7 -61 -23 -89c-20 -37 -25 -44 -97 -139l-75 -97l-65 -85l-20 -27h290v-65h-382l-1 57l19 24l61 80l71 92c60 78 95 125 115 156c22 32 32 63 32 92c0 56 -43 95 -107 95z
" />
    <glyph glyph-name="three" unicode="3" horiz-adv-x="533" 
d="M266 596c-68 0 -106 -36 -116 -112h-66c6 111 74 176 187 176c108 0 180 -65 180 -162c0 -68 -32 -115 -98 -144c80 -28 118 -80 118 -163c0 -121 -82 -200 -207 -200c-124 0 -202 71 -202 183v11h66c2 -84 49 -130 133 -130c85 0 136 50 136 133c0 85 -52 128 -155 128
c-7 0 -12 0 -24 -1v64c13 -1 19 -1 27 -1c81 0 131 43 131 115c0 63 -42 103 -110 103z" />
    <glyph glyph-name="four" unicode="4" horiz-adv-x="533" 
d="M379 655v-435h114v-62h-112v-164h-73v164h-267v56l264 441h74zM112 220h198l2 340z" />
    <glyph glyph-name="five" unicode="5" horiz-adv-x="533" 
d="M84 314l46 336h298l-8 -64h-232l-28 -191c34 33 66 46 113 46c114 0 191 -86 191 -213c0 -137 -89 -237 -210 -237c-105 0 -177 64 -184 166h68c11 -66 52 -103 114 -103c81 0 136 69 136 170c0 93 -49 154 -123 154c-52 0 -87 -22 -116 -71z" />
    <glyph glyph-name="six" unicode="6" horiz-adv-x="533" 
d="M301 653l11 12h80c-45 -50 -61 -70 -102 -123c-37 -50 -51 -70 -82 -122c26 13 45 18 73 18c107 0 183 -91 183 -220c0 -135 -79 -227 -193 -227c-119 0 -202 94 -202 228c1 124 76 266 232 434zM144 216c0 -96 52 -163 126 -163c70 0 119 67 119 163s-50 162 -122 162
c-73 0 -123 -66 -123 -162z" />
    <glyph glyph-name="seven" unicode="7" horiz-adv-x="533" 
d="M64 582v68h405v-60l-318 -590h-81l315 582h-321z" />
    <glyph glyph-name="eight" unicode="8" horiz-adv-x="533" 
d="M68 180c0 74 31 128 95 162c-52 28 -78 74 -78 139c0 102 78 179 182 179c103 0 181 -77 181 -179c0 -64 -26 -111 -78 -139c64 -34 95 -88 95 -162c0 -110 -82 -189 -198 -189c-117 0 -199 78 -199 189zM374 484c0 68 -44 115 -107 115c-64 0 -108 -47 -108 -115
s44 -115 108 -115c63 0 107 47 107 115zM391 181c0 76 -51 129 -124 129c-74 0 -125 -53 -124 -129c0 -76 50 -129 124 -129c73 0 124 53 124 129z" />
    <glyph glyph-name="nine" unicode="9" horiz-adv-x="533" 
d="M232 -3l-11 -12h-80c45 49 61 70 102 123c38 51 51 70 83 123c-26 -13 -46 -18 -75 -18c-104 0 -182 93 -182 217c0 135 83 230 200 230s195 -91 195 -227c0 -126 -75 -267 -232 -436zM389 435c0 97 -49 163 -121 163s-124 -69 -124 -164s50 -162 123 -162
c72 0 122 67 122 163z" />
    <glyph glyph-name="colon" unicode=":" horiz-adv-x="255" 
d="M70 47c0 32 25 57 57 57c33 0 59 -25 59 -57s-27 -57 -59 -57c-31 0 -57 25 -57 57zM70 416c0 31 25 57 57 57c33 0 59 -26 59 -57c0 -32 -27 -58 -59 -58s-57 26 -57 58z" />
    <glyph glyph-name="semicolon" unicode=";" horiz-adv-x="239" 
d="M55 416c0 31 26 57 58 57s58 -26 58 -57c0 -32 -26 -58 -58 -58s-58 26 -58 58zM179 34c0 -55 -25 -108 -82 -180h-63c46 48 74 97 81 145h-8c-29 0 -53 25 -53 55c0 32 27 58 60 58c39 0 65 -31 65 -78z" />
    <glyph glyph-name="less" unicode="&#x3c;" 
d="M33 367l434 202v-70l-359 -163l359 -162v-70l-434 202v61z" />
    <glyph glyph-name="equal" unicode="=" horiz-adv-x="533" 
d="M53 375v54h427v-54h-427zM53 242v54h427v-54h-427z" />
    <glyph glyph-name="greater" unicode="&#x3e;" 
d="M467 306l-433 -202v70l358 162l-358 163v70l433 -202v-61z" />
    <glyph glyph-name="question" unicode="?" horiz-adv-x="412" 
d="M131 47c0 32 26 57 57 57c32 0 59 -25 59 -57c0 -31 -27 -57 -59 -57c-31 0 -57 26 -57 57zM223 223c0 -15 0 -19 1 -34h-69v11l-1 44c0 84 6 97 69 162c51 52 65 76 65 112c0 47 -31 75 -82 75c-60 0 -90 -30 -97 -95h-62c5 105 62 161 165 161c95 0 153 -54 153 -141
c0 -52 -17 -83 -84 -150c-55 -53 -58 -61 -58 -145z" />
    <glyph glyph-name="at" unicode="@" horiz-adv-x="733" 
d="M483 430l13 64h52l-41 -212c-4 -18 -6 -38 -6 -47c0 -28 15 -48 38 -48c57 0 111 94 111 194c0 149 -108 250 -267 250c-170 0 -295 -127 -295 -300c0 -179 120 -296 305 -296c77 0 140 14 209 47l15 -47c-69 -32 -142 -47 -224 -47c-214 0 -359 140 -359 345
c0 198 149 346 349 346c185 0 317 -124 317 -297c0 -127 -77 -239 -164 -239c-41 0 -68 26 -73 69c-31 -47 -73 -71 -124 -71c-83 0 -142 67 -142 162c0 112 78 203 176 203c55 0 90 -24 110 -76zM349 191c67 0 115 68 115 163c0 61 -33 99 -87 99c-67 0 -120 -67 -120 -151
c0 -68 36 -111 92 -111z" />
    <glyph glyph-name="A" unicode="A" horiz-adv-x="566" 
d="M20 0l230 671h65l230 -671h-77l-60 177h-251l-59 -177h-78zM178 242h210l-105 331z" />
    <glyph glyph-name="B" unicode="B" horiz-adv-x="549" 
d="M86 0v667h121c91 0 127 -4 164 -17c65 -22 103 -77 103 -149c0 -76 -36 -123 -111 -146c99 -24 146 -78 146 -169c0 -81 -44 -147 -112 -169c-44 -14 -80 -17 -195 -17h-116zM160 603v-223h63c65 0 97 5 125 21c32 17 50 52 50 94c0 46 -23 82 -60 96
c-27 10 -50 12 -119 12h-59zM160 317v-254h66c81 0 115 4 145 17c36 16 58 58 58 110c0 56 -28 99 -76 114c-30 10 -55 13 -126 13h-67z" />
    <glyph glyph-name="C" unicode="C" horiz-adv-x="601" 
d="M326 678c124 0 205 -71 221 -196h-70c-19 87 -69 130 -152 130c-119 0 -194 -107 -194 -279s75 -279 195 -279c94 0 150 61 162 172h70c-12 -151 -95 -238 -229 -238c-170 0 -278 134 -278 344s108 346 275 346z" />
    <glyph glyph-name="D" unicode="D" horiz-adv-x="627" 
d="M86 0v667h104c69 0 96 -2 133 -7c38 -4 72 -15 101 -31c93 -52 151 -164 151 -295c0 -136 -58 -247 -156 -298c-56 -30 -99 -36 -237 -36h-96zM160 602v-537h49c107 0 136 5 182 33c68 43 105 126 105 236c0 114 -42 201 -117 241c-43 23 -70 27 -188 27h-31z" />
    <glyph glyph-name="E" unicode="E" horiz-adv-x="502" 
d="M160 602v-224h271v-65h-271v-248h298v-65h-372v667h366v-65h-292z" />
    <glyph glyph-name="F" unicode="F" horiz-adv-x="487" 
d="M160 602v-224h271v-65h-268v-313h-77v667h366v-65h-292z" />
    <glyph glyph-name="G" unicode="G" horiz-adv-x="622" 
d="M356 266v65h203v-274c-63 -45 -138 -69 -219 -69c-181 0 -289 130 -289 347c0 209 109 343 278 343c126 0 206 -71 221 -195h-69c-21 88 -69 129 -152 129c-123 0 -198 -104 -198 -277c0 -179 76 -281 209 -281c52 0 103 15 152 44v169z" />
    <glyph glyph-name="H" unicode="H" horiz-adv-x="634" 
d="M160 667v-287h314v287h75v-667h-75v318h-314v-318h-74v667h74z" />
    <glyph glyph-name="I" unicode="I" horiz-adv-x="246" 
d="M161 667v-667h-76v667h76z" />
    <glyph glyph-name="J" unicode="J" horiz-adv-x="288" 
d="M127 135v532h77v-532c0 -95 -2 -114 -17 -143c-25 -52 -83 -80 -165 -80c-6 0 -12 1 -24 1v64h12c56 0 93 16 107 47c9 20 10 34 10 111z" />
    <glyph glyph-name="K" unicode="K" horiz-adv-x="558" 
d="M162 349l270 318h91l-272 -316l298 -351h-103zM86 0v667h75v-667h-75z" />
    <glyph glyph-name="L" unicode="L" horiz-adv-x="475" 
d="M86 0v667h77v-602h285v-65h-362z" />
    <glyph glyph-name="M" unicode="M" horiz-adv-x="773" 
d="M86 0v667h113l187 -585l188 585h113v-667h-72v591l-191 -591h-75l-192 591v-591h-71z" />
    <glyph glyph-name="N" unicode="N" horiz-adv-x="643" 
d="M86 0v667h81l320 -555v555h70v-667h-81l-319 553v-553h-71z" />
    <glyph glyph-name="O" unicode="O" horiz-adv-x="646" 
d="M323 -11c-161 0 -272 139 -272 344s111 345 272 345c162 0 272 -140 272 -345s-110 -344 -272 -344zM323 612c-116 0 -192 -110 -192 -279c0 -168 76 -279 192 -279s192 111 192 279c0 169 -76 279 -192 279z" />
    <glyph glyph-name="P" unicode="P" horiz-adv-x="526" 
d="M86 0v667h110c99 0 143 -5 184 -18c73 -25 118 -94 118 -182c0 -82 -39 -147 -104 -173c-43 -17 -83 -22 -185 -22h-46v-272h-77zM160 602v-265h48c70 0 92 2 124 9c55 13 86 57 86 121c0 58 -25 102 -68 119c-33 13 -60 16 -151 16h-39z" />
    <glyph glyph-name="Q" unicode="Q" horiz-adv-x="656" 
d="M595 334c0 -76 -14 -139 -44 -201l130 -141h-90l-80 83c-49 -57 -114 -87 -189 -87c-159 0 -271 142 -271 345c0 204 112 345 272 345s272 -141 272 -344zM323 613c-114 0 -192 -114 -192 -280c0 -165 78 -279 192 -279s192 114 192 279c0 166 -78 280 -192 280z" />
    <glyph glyph-name="R" unicode="R" horiz-adv-x="561" 
d="M86 0v667h117c104 0 142 -5 186 -21c67 -26 107 -89 107 -168c0 -88 -46 -148 -137 -181l176 -297h-90l-169 285h-116v-285h-74zM160 602v-252h47c82 0 104 2 135 13c48 17 75 59 75 116c0 51 -23 90 -63 107c-32 14 -53 16 -148 16h-46z" />
    <glyph glyph-name="S" unicode="S" horiz-adv-x="547" 
d="M273 678c120 0 193 -67 199 -184h-73c-7 76 -53 118 -129 118c-70 0 -122 -43 -122 -101c0 -28 14 -53 40 -71c13 -9 29 -17 47 -26c5 -2 29 -13 72 -32c99 -45 133 -67 158 -106c17 -27 27 -62 27 -98c0 -113 -88 -189 -218 -189c-138 0 -216 74 -223 214h73
c6 -96 60 -149 152 -149c81 0 138 48 138 115c0 33 -13 61 -40 83c-22 18 -37 26 -103 56c-88 39 -129 62 -154 87c-29 30 -44 68 -44 110c0 101 84 173 200 173z" />
    <glyph glyph-name="T" unicode="T" horiz-adv-x="463" 
d="M21 602v65h421v-65h-173v-602h-75v602h-173z" />
    <glyph glyph-name="U" unicode="U" horiz-adv-x="625" 
d="M77 273v394h74v-393c0 -118 6 -145 39 -177c28 -27 73 -43 122 -43c83 0 143 41 155 106c6 29 6 43 6 114v393h75v-394v-49c0 -82 -15 -128 -53 -168c-43 -45 -105 -67 -183 -67c-107 0 -188 45 -219 124c-11 28 -16 62 -16 111v49z" />
    <glyph glyph-name="V" unicode="V" horiz-adv-x="561" 
d="M242 -4l-229 671h80l189 -580l188 580h78l-230 -671h-76z" />
    <glyph glyph-name="W" unicode="W" horiz-adv-x="777" 
d="M176 -4l-158 671h71l129 -568l138 568h65l138 -568l131 568h70l-159 -671h-81l-132 521l-131 -521h-81z" />
    <glyph glyph-name="X" unicode="X" horiz-adv-x="543" 
d="M229 349l-197 318h86l154 -256l156 256h86l-198 -318l208 -349h-85l-167 279l-167 -279h-85z" />
    <glyph glyph-name="Y" unicode="Y" horiz-adv-x="512" 
d="M220 280l-208 387h86l159 -312l158 312h85l-208 -387l1 -280h-74z" />
    <glyph glyph-name="Z" unicode="Z" horiz-adv-x="493" 
d="M52 602v65h410v-52l-343 -550h336v-65h-424v58l340 544h-319z" />
    <glyph glyph-name="bracketleft" unicode="[" horiz-adv-x="281" 
d="M92 -194v861h149v-58h-84v-746h84v-57h-149z" />
    <glyph glyph-name="backslash" unicode="\" horiz-adv-x="570" 
d="M124 667l392 -816h-70l-392 816h70z" />
    <glyph glyph-name="bracketright" unicode="]" horiz-adv-x="281" 
d="M189 667v-861h-150v57h84v746h-84v58h150z" />
    <glyph glyph-name="asciicircum" unicode="^" 
d="M249 613l-147 -246h-76l178 302h92l178 -302h-77z" />
    <glyph glyph-name="underscore" unicode="_" 
d="M0 -131v65h500v-65h-500z" />
    <glyph glyph-name="quoteleft" unicode="&#x2018;" horiz-adv-x="223" 
d="M56 526c0 47 23 96 71 152h61c-42 -42 -64 -78 -71 -117c3 0 5 1 7 1c29 0 52 -24 52 -53c0 -31 -26 -56 -58 -56c-37 0 -62 29 -62 73z" />
    <glyph glyph-name="a" unicode="a" horiz-adv-x="476" 
d="M238 428c-62 0 -95 -25 -105 -78h-70c10 89 72 137 178 137c77 0 133 -29 151 -78c9 -25 11 -47 11 -107v-177c0 -78 1 -92 13 -125h-67c-7 25 -8 33 -10 64c-28 -51 -74 -76 -139 -76c-93 0 -153 53 -153 136c0 67 38 116 110 143c43 16 92 27 162 39l15 2v21
c0 71 -26 99 -96 99zM334 209v48c-159 -29 -215 -62 -215 -128c0 -49 37 -83 92 -83c53 0 97 30 113 76c7 22 10 49 10 87z" />
    <glyph glyph-name="b" unicode="b" horiz-adv-x="508" 
d="M73 134v536h70v-265c36 57 77 82 136 82c109 0 184 -100 184 -248c0 -151 -77 -251 -192 -251c-59 0 -98 23 -131 79v-11c0 -19 -2 -37 -8 -56h-67c7 28 8 51 8 134zM391 239c0 115 -46 187 -121 187c-76 0 -128 -76 -128 -190c0 -113 49 -187 124 -187
c76 0 125 74 125 190z" />
    <glyph glyph-name="c" unicode="c" horiz-adv-x="465" 
d="M246 487c100 0 160 -59 170 -167h-69c-13 77 -42 107 -103 107c-79 0 -127 -72 -127 -190c0 -119 48 -190 129 -190c63 0 96 37 104 116h70c-9 -114 -70 -175 -174 -175c-122 0 -201 98 -201 248c0 154 78 251 201 251z" />
    <glyph glyph-name="d" unicode="d" horiz-adv-x="508" 
d="M365 670h69v-530c0 -84 2 -112 10 -140h-69c-5 19 -7 33 -7 51v17c-33 -57 -72 -80 -133 -80c-115 0 -190 96 -190 245c0 152 75 254 186 254c61 0 101 -24 134 -80v263zM366 237c0 116 -48 189 -124 189c-77 0 -125 -73 -125 -190c0 -115 48 -187 124 -187
c77 0 125 73 125 188z" />
    <glyph glyph-name="e" unicode="e" horiz-adv-x="486" 
d="M441 245c0 -4 0 -11 -1 -20h-323c3 -116 51 -177 137 -177c52 0 83 20 110 72l65 -8c-29 -82 -89 -124 -176 -124c-127 0 -208 95 -208 244c0 155 80 255 204 255c116 0 192 -95 192 -242zM119 280h249c-8 96 -51 148 -122 148c-69 0 -113 -51 -127 -148z" />
    <glyph glyph-name="f" unicode="f" horiz-adv-x="284" 
d="M155 506v-32h117v-57h-115v-417h-74v417h-67v57h67v30c0 71 4 95 20 122c21 34 60 54 106 54c24 0 46 -4 76 -14v-65c-28 13 -45 17 -67 17c-48 0 -63 -27 -63 -112z" />
    <glyph glyph-name="g" unicode="g" horiz-adv-x="483" 
d="M317 469l144 5v-53l-97 2c26 -24 41 -65 41 -108c0 -54 -22 -97 -60 -117c-23 -13 -50 -22 -94 -31c-80 -17 -101 -28 -101 -52c0 -20 10 -24 95 -32c104 -10 135 -17 166 -41c29 -22 47 -59 47 -99c0 -91 -82 -147 -215 -147c-130 0 -214 54 -214 137
c0 57 30 92 100 117c-36 14 -51 30 -51 55c0 32 23 53 85 76c-64 26 -94 70 -94 137c0 98 69 162 174 162c26 0 46 -3 74 -11zM339 320c0 61 -41 104 -101 104c-59 0 -102 -44 -102 -104c0 -59 41 -98 102 -98s101 39 101 98zM389 -63c0 54 -53 82 -152 82
c-90 0 -144 -30 -144 -82c0 -50 60 -83 151 -83c90 0 145 32 145 83z" />
    <glyph glyph-name="h" unicode="h" horiz-adv-x="502" 
d="M73 0v670h70v-252c35 48 78 69 136 69c66 0 121 -32 140 -82c10 -30 12 -50 12 -133v-272h-69v268c0 120 -23 157 -97 157c-79 0 -122 -58 -122 -164v-261h-70z" />
    <glyph glyph-name="i" unicode="i" horiz-adv-x="221" 
d="M73 0v474h74v-474h-74zM59 624c0 28 21 50 49 52h3c29 0 50 -22 50 -52c0 -29 -21 -50 -51 -50c-29 0 -51 21 -51 50z" />
    <glyph glyph-name="j" unicode="j" horiz-adv-x="251" 
d="M105 41v433h74v-433c0 -106 -6 -138 -33 -173c-30 -38 -77 -55 -149 -55h-24v62c7 -1 11 -1 16 -1c51 0 86 14 101 41c12 22 15 46 15 126zM90 624c0 29 21 50 50 52h2c29 0 50 -22 50 -52c0 -29 -21 -50 -50 -50c-30 0 -52 21 -52 50z" />
    <glyph glyph-name="k" unicode="k" horiz-adv-x="482" 
d="M145 258l200 216h84l-197 -213l212 -261h-96zM73 0v670h70v-670h-70z" />
    <glyph glyph-name="l" unicode="l" horiz-adv-x="221" 
d="M73 0v670h74v-670h-74z" />
    <glyph glyph-name="m" unicode="m" horiz-adv-x="765" 
d="M74 351c0 75 -2 88 -12 123h68c7 -19 9 -36 10 -65c29 53 73 78 137 78c66 0 107 -26 131 -83c32 56 79 83 146 83c57 0 101 -22 122 -61c16 -28 18 -45 18 -136v-290h-69v290c0 105 -20 135 -93 135c-75 0 -113 -49 -113 -145v-280h-70v279v28c0 85 -25 118 -91 118
c-75 0 -114 -51 -114 -149v-276h-70v327v24z" />
    <glyph glyph-name="n" unicode="n" horiz-adv-x="504" 
d="M72 348c0 77 -1 85 -11 126h67c8 -23 9 -36 9 -69c32 55 81 82 145 82c101 0 151 -56 151 -169v-46v-272h-70v268v34c0 84 -30 123 -95 123c-80 0 -126 -59 -126 -160v-265h-70v313v35z" />
    <glyph glyph-name="o" unicode="o" horiz-adv-x="504" 
d="M252 -12c-122 0 -207 102 -207 249c0 148 85 250 207 250s207 -102 207 -250c0 -147 -85 -249 -207 -249zM252 427c-81 0 -135 -76 -135 -190c0 -113 54 -189 135 -189s135 76 135 189c0 114 -54 190 -135 190z" />
    <glyph glyph-name="p" unicode="p" horiz-adv-x="508" 
d="M143 -197h-69v530c0 85 -2 111 -10 141h69c6 -20 7 -30 8 -57l1 -13c33 58 73 83 133 83c113 0 188 -100 188 -251c0 -149 -73 -248 -183 -248c-60 0 -102 24 -137 78v-263zM142 236c0 -112 51 -187 129 -187c74 0 120 70 120 184c0 119 -47 193 -122 193
c-77 0 -127 -75 -127 -190z" />
    <glyph glyph-name="q" unicode="q" horiz-adv-x="508" 
d="M434 -197h-69v262c-36 -54 -75 -77 -132 -77c-112 0 -188 98 -188 245c0 153 76 254 190 254c62 0 102 -25 131 -82c0 34 2 49 9 69h69c-8 -29 -10 -54 -10 -141v-530zM117 233c0 -114 47 -184 122 -184c76 0 127 75 127 187c0 114 -50 190 -125 190s-124 -76 -124 -193z
" />
    <glyph glyph-name="r" unicode="r" horiz-adv-x="327" 
d="M74 343c0 76 -1 88 -8 131h67c6 -24 9 -49 9 -73c0 -7 -1 -16 -2 -29c34 79 72 115 123 115c18 0 38 -5 58 -15v-70c-32 15 -45 19 -63 19c-38 0 -71 -26 -92 -73c-15 -33 -21 -73 -21 -136v-212h-71v311v32z" />
    <glyph glyph-name="s" unicode="s" horiz-adv-x="438" 
d="M223 487c101 0 159 -51 164 -143h-68c-7 58 -37 85 -97 85c-54 0 -91 -29 -91 -71c0 -39 20 -54 111 -80c85 -26 113 -40 133 -69c13 -20 20 -45 20 -73c0 -91 -66 -148 -172 -148c-114 0 -179 57 -179 158v1h68c6 -68 42 -101 110 -101c62 0 101 33 101 84
c0 47 -12 55 -136 93c-92 29 -127 64 -127 130c0 80 66 134 163 134z" />
    <glyph glyph-name="t" unicode="t" horiz-adv-x="314" 
d="M171 611l-2 -137h113l-1 -57h-113l-5 -240v-36v-11c0 -62 11 -78 53 -78c21 0 45 5 69 16l-1 -62c-30 -11 -54 -16 -84 -16c-78 0 -110 32 -110 113c0 12 1 25 1 39c1 15 1 27 1 37l6 238h-71l1 57h72l3 137h68z" />
    <glyph glyph-name="u" unicode="u" horiz-adv-x="497" 
d="M71 184v290h69v-290c0 -98 27 -134 98 -134c46 0 85 25 103 68c9 21 13 47 13 87v269h70v-330v-40c0 -62 1 -72 11 -104h-68c-8 22 -10 36 -10 63c-28 -53 -66 -75 -127 -75c-72 0 -131 37 -149 95c-8 26 -10 47 -10 101z" />
    <glyph glyph-name="v" unicode="v" horiz-adv-x="431" 
d="M178 -6l-168 480h74l132 -398l132 398h73l-168 -480h-75z" />
    <glyph glyph-name="w" unicode="w" horiz-adv-x="661" 
d="M152 -6l-137 480h72l102 -376l111 376h60l111 -376l102 376h72l-137 -480h-69l-109 372l-110 -372h-68z" />
    <glyph glyph-name="x" unicode="x" horiz-adv-x="441" 
d="M179 252l-148 222h82l108 -169l110 169h85l-152 -222l171 -252h-84l-130 196l-131 -196h-84z" />
    <glyph glyph-name="y" unicode="y" horiz-adv-x="438" 
d="M181 -5l-165 479h75l129 -395l133 395h73l-156 -441l-21 -60c-29 -80 -57 -122 -101 -148c-29 -16 -62 -25 -100 -25c-5 0 -12 1 -21 1v62h5c83 0 109 22 144 118z" />
    <glyph glyph-name="z" unicode="z" horiz-adv-x="398" 
d="M43 416v58h334v-52l-273 -364h268v-58h-350v55l269 361h-248z" />
    <glyph glyph-name="braceleft" unicode="{" horiz-adv-x="281" 
d="M166 357c0 -67 -12 -93 -56 -121c44 -27 56 -54 56 -121v-158c0 -84 16 -102 91 -102h2v-54c-8 -1 -11 -1 -16 -1c-107 0 -141 39 -141 159v158c0 59 -15 84 -56 96v46c41 12 56 38 56 96v158c0 68 8 99 31 124s55 35 111 35h15v-55h-2c-75 0 -91 -18 -91 -101v-159z" />
    <glyph glyph-name="bar" unicode="|" 
d="M215 -250v1000h70v-1000h-70z" />
    <glyph glyph-name="braceright" unicode="}" horiz-adv-x="281" 
d="M115 115c0 67 12 94 56 121c-44 28 -56 54 -56 121v159c0 81 -17 101 -86 101h-8v55h16c56 0 89 -10 110 -35c24 -26 32 -56 32 -124v-157c0 -59 14 -85 56 -97v-46c-41 -11 -56 -37 -56 -96v-158c0 -120 -35 -159 -141 -159c-5 0 -9 0 -17 1v54h7c70 0 87 19 87 102v158
z" />
    <glyph glyph-name="asciitilde" unicode="~" horiz-adv-x="667" 
d="M224 657c-35 0 -60 -21 -89 -74l-42 27c42 85 77 114 136 114c28 0 58 -9 113 -35c59 -27 73 -32 97 -32c38 0 61 17 92 69l43 -25c-39 -77 -83 -111 -143 -111c-18 0 -57 10 -83 22l-57 26c-27 13 -50 19 -67 19z" />
    <glyph glyph-name="exclamdown" unicode="&#xa1;" horiz-adv-x="249" 
d="M155 276l8 -467h-77l12 467h57zM182 416c0 -32 -26 -58 -57 -58c-33 0 -59 26 -59 58c0 31 26 57 59 57c31 0 57 -26 57 -57z" />
    <glyph glyph-name="cent" unicode="&#xa2;" horiz-adv-x="533" 
d="M379 420c-6 70 -31 99 -89 106v-377c58 9 87 44 94 114h71c-5 -100 -69 -168 -165 -175v-102h-41v104c-107 17 -170 108 -170 242c0 139 62 231 171 253v95h40v-94c96 -5 152 -63 160 -166h-71zM250 151v372c-63 -22 -100 -92 -100 -189s37 -165 100 -183z" />
    <glyph glyph-name="sterling" unicode="&#xa3;" horiz-adv-x="533" 
d="M230 389l-3 -19h150v-58h-160l-2 -12c-9 -62 -20 -112 -35 -160c-11 -37 -16 -50 -33 -82c39 8 54 10 97 10h37l39 -1h20c62 0 79 16 83 80h63v-9c0 -43 -13 -81 -37 -106c-27 -26 -48 -32 -120 -32h-275c21 35 29 52 40 91c17 55 35 137 47 207l2 13h-96v59h107l1 10
c20 117 29 158 44 203c22 62 67 94 132 94c85 0 124 -42 129 -136h-66c-5 54 -21 73 -62 73c-36 0 -58 -19 -69 -59c-8 -28 -18 -76 -25 -119z" />
    <glyph glyph-name="fraction" unicode="&#x2044;" horiz-adv-x="82" 
d="M-179 0l380 650h61l-381 -650h-60z" />
    <glyph glyph-name="yen" unicode="&#xa5;" horiz-adv-x="533" 
d="M510 667l-125 -242h97v-49h-122l-41 -79h163v-49h-175l1 -248h-75v248h-182v49h170l-42 79h-128v49h102l-130 242h85l161 -313l160 313h81z" />
    <glyph glyph-name="florin" unicode="&#x192;" horiz-adv-x="533" 
d="M359 526l-9 -53h103v-58h-113l-60 -338c-20 -116 -29 -145 -54 -176c-21 -27 -56 -42 -96 -42c-35 0 -70 10 -114 33l13 64c37 -24 65 -34 96 -34c49 0 60 20 85 161l58 332h-94v58h104l12 68c14 78 28 115 55 141c22 22 53 34 87 34c27 0 54 -7 85 -21l-11 -62
c-36 16 -54 21 -72 21c-41 0 -57 -28 -75 -128z" />
    <glyph glyph-name="section" unicode="&#xa7;" 
d="M252 660c105 0 166 -60 171 -166h-64c-8 74 -41 107 -107 107c-60 0 -100 -34 -100 -85c0 -41 14 -56 94 -100c100 -56 132 -75 155 -98c20 -20 31 -48 31 -79c0 -55 -28 -94 -88 -127c49 -37 68 -72 68 -123c0 -96 -67 -155 -176 -155c-117 0 -178 58 -180 172h64
c9 -81 42 -113 115 -113c68 0 109 36 109 95c0 46 -16 62 -124 125l-57 32c-70 40 -101 80 -101 131c0 50 29 88 91 122c-49 34 -69 68 -69 116c0 84 71 146 168 146zM228 354l-23 12c-50 -24 -75 -53 -75 -88c0 -26 15 -48 49 -70c11 -7 26 -16 44 -26
c31 -18 50 -29 56 -32c3 -2 8 -5 15 -8c44 21 70 55 70 91s-13 50 -91 95z" />
    <glyph glyph-name="currency" unicode="&#xa4;" horiz-adv-x="667" 
d="M96 82l-40 41l93 95c-34 41 -51 88 -51 141s15 93 51 142l-96 95l41 41l95 -95c46 34 92 49 145 49s98 -15 142 -48l95 93l41 -40l-95 -94c36 -44 51 -88 51 -142s-15 -99 -50 -142l95 -95l-40 -41l-95 95c-43 -33 -91 -49 -143 -49s-96 15 -145 49zM501 359
c0 94 -74 169 -167 169s-169 -75 -169 -168s76 -169 169 -169c92 0 167 76 167 168z" />
    <glyph glyph-name="quotesingle" unicode="'" horiz-adv-x="250" 
d="M162 667l-11 -268h-52l-11 268h74z" />
    <glyph glyph-name="quotedblleft" unicode="&#x201c;" horiz-adv-x="379" 
d="M212 526c0 47 23 97 70 152h61c-42 -42 -63 -78 -70 -117c2 1 5 1 7 1c29 0 52 -24 52 -53c0 -31 -26 -56 -58 -56c-37 0 -62 29 -62 73zM56 526c0 47 23 96 71 152h61c-42 -42 -64 -78 -71 -117c3 0 5 1 7 1c29 0 52 -24 52 -53c0 -31 -26 -56 -58 -56
c-37 0 -62 29 -62 73z" />
    <glyph glyph-name="guillemotleft" unicode="&#xab;" horiz-adv-x="381" 
d="M237 233l76 -233h-51l-90 233l90 241h51zM107 233l77 -233h-51l-90 233l90 241h51z" />
    <glyph glyph-name="guilsinglleft" unicode="&#x2039;" horiz-adv-x="241" 
d="M104 233l76 -233h-56l-90 233l90 241h56z" />
    <glyph glyph-name="guilsinglright" unicode="&#x203a;" horiz-adv-x="241" 
d="M137 241l-76 233h56l90 -233l-90 -241h-56z" />
    <glyph glyph-name="fi" unicode="&#xfb01;" horiz-adv-x="505" 
d="M155 506v-32h117v-57h-115v-417h-74v417h-67v57h67v30c0 71 4 95 20 122c21 34 60 54 106 54c24 0 46 -4 76 -14v-65c-28 13 -45 17 -67 17c-48 0 -63 -27 -63 -112zM358 0v474h73v-474h-73zM343 624c0 28 21 50 49 52h3c29 0 50 -22 50 -52c0 -29 -21 -50 -50 -50
c-30 0 -52 21 -52 50z" />
    <glyph glyph-name="fl" unicode="&#xfb02;" horiz-adv-x="505" 
d="M155 506v-32h117v-57h-115v-417h-74v417h-67v57h67v30c0 71 4 95 20 122c21 34 60 54 106 54c24 0 46 -4 76 -14v-65c-28 13 -45 17 -67 17c-48 0 -63 -27 -63 -112zM358 0v670h73v-670h-73z" />
    <glyph glyph-name="endash" unicode="&#x2013;" horiz-adv-x="533" 
d="M53 309v53h427v-53h-427z" />
    <glyph glyph-name="dagger" unicode="&#x2020;" 
d="M217 471v179h68v-179h178v-58h-178v-546h-68v546h-180v58h180z" />
    <glyph glyph-name="daggerdbl" unicode="&#x2021;" 
d="M217 538v112h66v-112h180v-59h-180v-421h180v-59h-180v-132h-66v132h-180v59h180v421h-180v59h180z" />
    <glyph glyph-name="periodcentered" unicode="&#xb7;" horiz-adv-x="131" 
d="M0 342c0 35 29 64 65 64c37 0 66 -28 66 -64s-29 -65 -66 -65c-36 0 -65 29 -65 65z" />
    <glyph glyph-name="paragraph" unicode="&#xb6;" horiz-adv-x="579" 
d="M282 -98h-63v413h-15c-108 0 -183 71 -183 173c0 76 42 140 108 162c34 12 70 17 125 17h255v-57h-60v-708h-62v708h-105v-708z" />
    <glyph glyph-name="bullet" unicode="&#x2022;" horiz-adv-x="667" 
d="M196 340c0 77 62 140 138 140c75 0 137 -63 137 -140s-62 -140 -137 -140c-76 0 -138 63 -138 140z" />
    <glyph glyph-name="quotesinglbase" unicode="&#x201a;" horiz-adv-x="227" 
d="M171 35c0 -47 -23 -97 -70 -152h-61c41 41 64 78 70 116h-8c-28 0 -51 24 -51 53c0 31 26 56 58 56c37 0 62 -30 62 -73z" />
    <glyph glyph-name="quotedblbase" unicode="&#x201e;" horiz-adv-x="389" 
d="M167 35c0 -47 -22 -96 -70 -152h-62c41 40 64 78 71 116h-7c-29 0 -52 23 -52 53c0 31 26 56 58 56c37 0 62 -30 62 -73zM333 35c0 -48 -23 -96 -71 -152h-61c41 41 64 78 71 116h-8c-29 0 -52 23 -52 53c0 31 26 56 59 56c37 0 62 -30 62 -73z" />
    <glyph glyph-name="quotedblright" unicode="&#x201d;" horiz-adv-x="389" 
d="M167 605c0 -47 -22 -96 -70 -152h-62c42 41 64 78 71 117c-3 -1 -6 -1 -8 -1c-28 0 -51 24 -51 53c0 31 26 56 58 56c37 0 62 -29 62 -73zM333 605c0 -47 -23 -96 -71 -152h-61c42 41 64 78 71 117c-3 -1 -6 -1 -8 -1c-29 0 -52 24 -52 53c0 31 26 56 59 56
c37 0 62 -29 62 -73z" />
    <glyph glyph-name="guillemotright" unicode="&#xbb;" horiz-adv-x="381" 
d="M144 241l-76 233h51l90 -233l-90 -241h-51zM274 241l-77 233h51l90 -233l-90 -241h-51z" />
    <glyph glyph-name="ellipsis" unicode="&#x2026;" horiz-adv-x="693" 
d="M70 47c0 32 25 57 57 57c33 0 59 -25 59 -57s-27 -57 -59 -57c-31 0 -57 25 -57 57zM288 47c0 32 26 57 58 57s58 -25 58 -57s-26 -57 -58 -57s-58 26 -58 57zM507 47c0 32 26 57 58 57s58 -25 58 -57c0 -31 -26 -57 -58 -57s-58 26 -58 57z" />
    <glyph glyph-name="perthousand" unicode="&#x2030;" horiz-adv-x="866" 
d="M60 0l391 667h62l-392 -667h-61zM296 155c0 90 55 160 126 160c72 0 127 -70 127 -160c0 -91 -55 -160 -127 -160c-71 0 -126 70 -126 160zM590 155c0 90 55 160 126 160s127 -70 127 -160c-1 -91 -56 -160 -127 -160s-126 69 -126 160zM24 512c0 90 55 160 126 160
s127 -70 127 -160c0 -91 -55 -161 -127 -161c-71 0 -126 70 -126 161zM492 155c0 64 -29 110 -70 110c-40 0 -69 -47 -69 -110c0 -64 29 -110 69 -110c41 0 70 46 70 110zM786 155c0 64 -30 110 -70 110s-69 -46 -69 -110s29 -110 69 -110s70 46 70 110zM220 512
c0 63 -29 110 -70 110c-40 0 -69 -47 -69 -110c0 -64 29 -110 69 -110c41 0 70 46 70 110z" />
    <glyph glyph-name="questiondown" unicode="&#xbf;" horiz-adv-x="412" 
d="M286 416c0 -32 -26 -58 -57 -58c-33 0 -59 26 -59 58c0 31 26 57 58 57s58 -26 58 -57zM194 234c0 15 0 23 -1 40h69v-11v-40c0 -89 -5 -101 -68 -166c-51 -52 -65 -76 -65 -112c0 -47 31 -75 82 -75c60 0 90 30 97 95h61c-4 -105 -62 -161 -164 -161
c-95 0 -154 54 -154 141c0 52 17 82 85 150c53 52 58 63 58 139z" />
    <glyph glyph-name="grave" unicode="`" 
d="M208 684l104 -137h-58l-146 137h100z" />
    <glyph glyph-name="acute" unicode="&#xb4;" 
d="M269 547h-59l104 137h100z" />
    <glyph glyph-name="circumflex" unicode="&#x2c6;" 
d="M165 550h-68l113 140h80l113 -140h-67l-86 94z" />
    <glyph glyph-name="tilde" unicode="&#x2dc;" 
d="M186 614c-22 0 -36 -17 -45 -55l-40 10c13 69 41 103 84 103c21 0 39 -6 68 -25c35 -23 47 -29 60 -29c23 0 38 20 45 58l41 -9c-8 -66 -40 -108 -82 -108c-20 0 -42 9 -73 28c-34 22 -46 27 -58 27z" />
    <glyph glyph-name="macron" unicode="&#xaf;" 
d="M109 591v53h273v-53h-273z" />
    <glyph glyph-name="breve" unicode="&#x2d8;" 
d="M252 547c-68 0 -117 53 -125 135h41c13 -49 44 -78 83 -78s67 27 81 78h41c-8 -83 -54 -135 -121 -135z" />
    <glyph glyph-name="dotaccent" unicode="&#x2d9;" 
d="M197 630c0 29 24 52 53 52s53 -23 53 -52c0 -30 -24 -53 -53 -53s-53 24 -53 53z" />
    <glyph glyph-name="dieresis" unicode="&#xa8;" 
d="M96 630c0 29 23 52 52 52s53 -23 53 -52c0 -30 -24 -53 -53 -53s-52 24 -52 53zM299 630c0 29 24 52 53 52s52 -23 52 -52c0 -30 -23 -53 -52 -53s-53 24 -53 53z" />
    <glyph glyph-name="ring" unicode="&#x2da;" 
d="M158 635c0 51 41 92 92 92s92 -41 92 -92s-41 -92 -92 -92s-92 42 -92 92zM299 635c0 28 -22 49 -49 49s-49 -21 -49 -49c0 -27 22 -49 49 -49s49 22 49 49z" />
    <glyph glyph-name="cedilla" unicode="&#xb8;" 
d="M207 -78l36 78h48l-26 -56c56 -7 85 -33 85 -75c0 -49 -39 -83 -95 -83c-25 0 -46 5 -75 17v38c6 -2 11 -3 14 -4c20 -6 27 -8 40 -8c33 0 53 18 53 47c0 32 -23 46 -80 46z" />
    <glyph glyph-name="hungarumlaut" unicode="&#x2dd;" 
d="M222 546h-58l89 137h84zM340 546h-58l90 137h83z" />
    <glyph glyph-name="ogonek" unicode="&#x2db;" 
d="M187 -95c0 41 31 75 86 95h73c-64 -27 -96 -57 -96 -88c0 -27 22 -45 54 -45c14 0 27 3 41 8v-44c-20 -8 -38 -11 -59 -11c-57 0 -99 35 -99 85z" />
    <glyph glyph-name="caron" unicode="&#x2c7;" 
d="M335 690h68l-113 -140h-80l-113 140h67l86 -95z" />
    <glyph glyph-name="emdash" unicode="&#x2014;" horiz-adv-x="575" 
d="M0 224v55h575v-55h-575z" />
    <glyph glyph-name="AE" unicode="&#xc6;" horiz-adv-x="852" 
d="M21 0l382 667h404v-65h-288v-224h264v-65h-264v-248h290v-65h-367v177h-238l-100 -177h-83zM241 242h201v359z" />
    <glyph glyph-name="ordfeminine" unicode="&#xaa;" 
d="M249 633c-39 0 -58 -14 -64 -48h-49c5 58 46 90 116 90c72 0 105 -30 105 -98v-16v-108c0 -49 1 -57 9 -79h-47c-5 16 -6 21 -7 33c-25 -30 -48 -41 -87 -41c-59 0 -98 34 -98 86c0 40 25 72 71 89c27 11 51 17 102 26l9 1v14c0 36 -19 51 -60 51zM115 280v40h262v-40
h-262zM309 504v27c-101 -20 -132 -38 -132 -75c0 -30 22 -49 55 -49c52 0 77 31 77 97z" />
    <glyph glyph-name="Oslash" unicode="&#xd8;" horiz-adv-x="646" 
d="M322 678c64 0 118 -20 168 -63l36 52h58l-62 -87c46 -64 68 -140 68 -238c0 -207 -113 -353 -273 -353c-63 0 -124 22 -170 63l-37 -52h-57l62 87c-46 64 -68 140 -68 237c0 208 113 354 275 354zM163 151l282 408c-34 35 -76 53 -123 53c-117 0 -195 -115 -195 -289
c0 -68 11 -120 36 -172zM473 518l-283 -408c33 -36 78 -56 125 -56c118 0 196 116 196 292c0 68 -12 121 -38 172z" />
    <glyph glyph-name="OE" unicode="&#x152;" horiz-adv-x="930" 
d="M327 678c81 0 138 -28 190 -95v84h363v-65h-289v-224h268v-65h-268v-248h295v-65h-369v85c-25 -31 -36 -42 -56 -57c-36 -26 -82 -39 -135 -39c-166 0 -275 136 -275 343c0 209 110 346 276 346zM516 333c0 171 -74 279 -192 279c-117 0 -193 -109 -193 -278
c0 -171 75 -280 193 -280c119 0 192 107 192 279z" />
    <glyph glyph-name="ordmasculine" unicode="&#xba;" 
d="M383 520c0 -91 -55 -154 -133 -154s-133 63 -133 154s55 155 133 155s133 -64 133 -155zM119 280v40h262v-40h-262zM168 520c0 -68 33 -113 82 -113s82 46 82 113c0 68 -33 113 -82 113s-82 -45 -82 -113z" />
    <glyph glyph-name="ae" unicode="&#xe6;" horiz-adv-x="771" 
d="M726 243v-16h-325c1 -115 52 -180 141 -180c51 0 87 24 111 73l65 -8c-21 -77 -88 -124 -175 -124c-79 0 -143 37 -177 103c-36 -71 -88 -103 -165 -103c-91 0 -154 53 -154 130c0 104 102 164 281 164v30c0 87 -22 116 -90 116c-58 0 -95 -28 -110 -84h-66
c12 91 77 143 178 143c78 0 125 -26 145 -82c39 57 84 82 149 82c117 0 192 -95 192 -244zM404 282h244c-5 94 -47 146 -117 146c-67 0 -115 -54 -127 -146zM328 195v33h-14c-123 0 -195 -40 -195 -107c0 -45 36 -75 89 -75c78 0 120 52 120 149z" />
    <glyph glyph-name="dotlessi" unicode="&#x131;" horiz-adv-x="221" 
d="M73 0v474h74v-474h-74z" />
    <glyph glyph-name="oslash" unicode="&#xf8;" horiz-adv-x="504" 
d="M29 0l60 72c-31 48 -44 96 -44 160c0 150 86 255 208 255c53 0 98 -18 135 -55l35 41h52l-60 -72c30 -47 44 -96 44 -160c0 -149 -86 -253 -209 -253c-52 0 -94 16 -134 52l-33 -40h-54zM117 231c0 -42 5 -69 20 -103l208 254c-25 30 -55 45 -91 45
c-82 0 -137 -79 -137 -196zM387 243c0 41 -6 68 -20 102l-208 -255c23 -28 55 -43 91 -43c82 0 137 79 137 196z" />
    <glyph glyph-name="oe" unicode="&#x153;" horiz-adv-x="824" 
d="M779 251c0 -8 0 -15 -1 -29h-324c4 -113 53 -175 139 -175c53 0 92 26 112 74l65 -8c-29 -84 -88 -125 -176 -125c-79 0 -136 33 -176 104c-43 -74 -92 -104 -165 -104c-123 0 -208 102 -208 249c0 149 85 250 209 250c75 0 128 -34 165 -107c41 74 94 107 167 107
c114 0 193 -96 193 -236zM456 275h247c-4 97 -48 153 -120 153c-70 0 -115 -54 -127 -153zM382 238c0 113 -53 189 -131 189c-79 0 -134 -77 -134 -189c0 -114 54 -191 134 -191c79 0 131 77 131 191z" />
    <glyph glyph-name="germandbls" unicode="&#xdf;" horiz-adv-x="506" 
d="M138 0h-70v425c0 109 4 136 24 172c27 48 82 77 151 77c102 0 173 -65 173 -159c0 -70 -37 -115 -114 -138c105 -20 159 -83 159 -188c0 -113 -72 -196 -172 -196c-26 0 -46 5 -74 17v64c24 -13 45 -18 70 -18c62 0 103 53 103 133c0 100 -67 155 -192 156v60h20
c80 0 128 40 128 105c0 63 -40 104 -102 104c-45 0 -78 -20 -91 -54c-12 -28 -13 -44 -13 -132v-428z" />
    <glyph glyph-name="Adieresis" unicode="&#xc4;" horiz-adv-x="566" 
d="M20 0l230 671h65l230 -671h-77l-60 177h-251l-59 -177h-78zM137 783c0 31 25 56 57 56c31 0 56 -25 56 -56c0 -32 -25 -57 -56 -57c-32 0 -57 25 -57 57zM315 783c0 31 25 56 57 56c31 0 57 -25 57 -56c0 -32 -26 -57 -57 -57s-57 26 -57 57zM178 242h210l-105 331z" />
    <glyph glyph-name="Aring" unicode="&#xc5;" horiz-adv-x="566" 
d="M20 0l230 671h65l230 -671h-77l-60 177h-251l-59 -177h-78zM191 791c0 51 41 92 92 92s92 -41 92 -92s-41 -92 -92 -92s-92 41 -92 92zM178 242h210l-105 331zM332 791c0 28 -22 49 -49 49c-28 0 -50 -22 -50 -49s23 -49 50 -49s49 22 49 49z" />
    <glyph glyph-name="Ccedilla" unicode="&#xc7;" horiz-adv-x="601" 
d="M558 226c-11 -144 -83 -225 -209 -237l-23 -55c63 -7 95 -36 95 -85c0 -54 -43 -91 -105 -91c-26 0 -43 4 -80 18v42c32 -11 40 -13 56 -13c36 0 59 20 59 51c0 32 -25 49 -72 49h-15l33 85c-158 24 -246 146 -246 343c0 209 108 345 274 345c125 0 206 -71 222 -196h-70
c-19 87 -69 130 -152 130c-120 0 -194 -107 -194 -280c0 -171 75 -278 194 -278c94 0 151 61 163 172h70z" />
    <glyph glyph-name="Eacute" unicode="&#xc9;" horiz-adv-x="502" 
d="M160 602v-224h271v-65h-271v-248h298v-65h-372v667h366v-65h-292zM295 714h-72l138 137h100z" />
    <glyph glyph-name="Ntilde" unicode="&#xd1;" horiz-adv-x="643" 
d="M86 0v667h81l320 -555v555h70v-667h-81l-319 553v-553h-71zM251 790c-28 0 -46 -20 -51 -55l-44 16c16 67 46 98 97 98c23 0 42 -7 71 -26c37 -24 48 -29 65 -29c28 0 44 18 52 59l41 -16c-10 -65 -43 -101 -93 -101c-22 0 -46 8 -72 23c-23 14 -37 22 -43 25
c-7 4 -14 6 -23 6z" />
    <glyph glyph-name="Odieresis" unicode="&#xd6;" horiz-adv-x="646" 
d="M323 -11c-161 0 -272 139 -272 344s111 345 272 345c162 0 272 -140 272 -345s-110 -344 -272 -344zM177 783c0 31 25 56 57 56s57 -25 57 -56c0 -32 -26 -57 -57 -57s-57 26 -57 57zM356 783c0 31 25 56 56 56c32 0 57 -25 57 -56c0 -32 -25 -57 -57 -57
c-31 0 -57 26 -56 57zM323 612c-116 0 -192 -110 -192 -279c0 -168 76 -279 192 -279s192 111 192 279c0 169 -76 279 -192 279z" />
    <glyph glyph-name="Udieresis" unicode="&#xdc;" horiz-adv-x="625" 
d="M77 273v394h74v-393c0 -118 6 -145 39 -177c28 -27 73 -43 122 -43c83 0 143 41 155 106c6 29 6 43 6 114v393h75v-394v-49c0 -82 -15 -128 -53 -168c-43 -45 -105 -67 -183 -67c-107 0 -188 45 -219 124c-11 28 -16 62 -16 111v49zM166 783c0 31 26 56 57 56
c32 0 57 -25 57 -56c0 -32 -25 -57 -57 -57c-31 0 -57 26 -57 57zM345 783c0 31 25 56 56 56c32 0 57 -25 57 -56c0 -32 -25 -57 -56 -57c-32 0 -57 26 -57 57z" />
    <glyph glyph-name="aacute" unicode="&#xe1;" horiz-adv-x="476" 
d="M238 428c-62 0 -95 -25 -105 -78h-70c10 89 72 137 178 137c77 0 133 -29 151 -78c9 -25 11 -47 11 -107v-177c0 -78 1 -92 13 -125h-67c-7 25 -8 33 -10 64c-28 -51 -74 -76 -139 -76c-93 0 -153 53 -153 136c0 67 38 116 110 143c43 16 92 27 162 39l15 2v21
c0 71 -26 99 -96 99zM262 547h-58l104 137h100zM334 209v48c-159 -29 -215 -62 -215 -128c0 -49 37 -83 92 -83c53 0 97 30 113 76c7 22 10 49 10 87z" />
    <glyph glyph-name="agrave" unicode="&#xe0;" horiz-adv-x="476" 
d="M238 428c-62 0 -95 -25 -105 -78h-70c10 89 72 137 178 137c77 0 133 -29 151 -78c9 -25 11 -47 11 -107v-177c0 -78 1 -92 13 -125h-67c-7 25 -8 33 -10 64c-28 -51 -74 -76 -139 -76c-93 0 -153 53 -153 136c0 67 38 116 110 143c43 16 92 27 162 39l15 2v21
c0 71 -26 99 -96 99zM191 684l103 -137h-58l-145 137h100zM334 209v48c-159 -29 -215 -62 -215 -128c0 -49 37 -83 92 -83c53 0 97 30 113 76c7 22 10 49 10 87z" />
    <glyph glyph-name="acircumflex" unicode="&#xe2;" horiz-adv-x="476" 
d="M238 428c-62 0 -95 -25 -105 -78h-70c10 89 72 137 178 137c77 0 133 -29 151 -78c9 -25 11 -47 11 -107v-177c0 -78 1 -92 13 -125h-67c-7 25 -8 33 -10 64c-28 -51 -74 -76 -139 -76c-93 0 -153 53 -153 136c0 67 38 116 110 143c43 16 92 27 162 39l15 2v21
c0 71 -26 99 -96 99zM158 550h-68l113 140h81l113 -140h-68l-86 94zM334 209v48c-159 -29 -215 -62 -215 -128c0 -49 37 -83 92 -83c53 0 97 30 113 76c7 22 10 49 10 87z" />
    <glyph glyph-name="adieresis" unicode="&#xe4;" horiz-adv-x="476" 
d="M238 428c-62 0 -95 -25 -105 -78h-70c10 89 72 137 178 137c77 0 133 -29 151 -78c9 -25 11 -47 11 -107v-177c0 -78 1 -92 13 -125h-67c-7 25 -8 33 -10 64c-28 -51 -74 -76 -139 -76c-93 0 -153 53 -153 136c0 67 38 116 110 143c43 16 92 27 162 39l15 2v21
c0 71 -26 99 -96 99zM83 630c0 29 24 52 53 52s52 -23 52 -52c0 -30 -23 -53 -52 -53s-53 24 -53 53zM287 630c0 29 23 52 52 52s53 -23 53 -52c0 -30 -24 -53 -53 -53s-52 24 -52 53zM334 209v48c-159 -29 -215 -62 -215 -128c0 -49 37 -83 92 -83c53 0 97 30 113 76
c7 22 10 49 10 87z" />
    <glyph glyph-name="atilde" unicode="&#xe3;" horiz-adv-x="476" 
d="M238 428c-62 0 -95 -25 -105 -78h-70c10 89 72 137 178 137c77 0 133 -29 151 -78c9 -25 11 -47 11 -107v-177c0 -78 1 -92 13 -125h-67c-7 25 -8 33 -10 64c-28 -51 -74 -76 -139 -76c-93 0 -153 53 -153 136c0 67 38 116 110 143c43 16 92 27 162 39l15 2v21
c0 71 -26 99 -96 99zM169 614c-22 0 -36 -17 -44 -55l-41 10c13 69 41 103 84 103c21 0 39 -6 68 -25c35 -23 47 -29 61 -29c22 0 37 20 45 58l40 -9c-8 -66 -40 -108 -82 -108c-20 0 -42 9 -73 28c-34 22 -45 27 -58 27zM334 209v48c-159 -29 -215 -62 -215 -128
c0 -49 37 -83 92 -83c53 0 97 30 113 76c7 22 10 49 10 87z" />
    <glyph glyph-name="aring" unicode="&#xe5;" horiz-adv-x="476" 
d="M238 428c-62 0 -95 -25 -105 -78h-70c10 89 72 137 178 137c77 0 133 -29 151 -78c9 -25 11 -47 11 -107v-177c0 -78 1 -92 13 -125h-67c-7 25 -8 33 -10 64c-28 -51 -74 -76 -139 -76c-93 0 -153 53 -153 136c0 67 38 116 110 143c43 16 92 27 162 39l15 2v21
c0 71 -26 99 -96 99zM157 635c0 51 41 92 92 92s92 -41 92 -92s-41 -92 -92 -92s-92 42 -92 92zM334 209v48c-159 -29 -215 -62 -215 -128c0 -49 37 -83 92 -83c53 0 97 30 113 76c7 22 10 49 10 87zM298 635c0 28 -22 49 -49 49s-49 -21 -49 -49c0 -27 22 -49 49 -49
s49 22 49 49z" />
    <glyph glyph-name="ccedilla" unicode="&#xe7;" horiz-adv-x="474" 
d="M429 163c-9 -101 -61 -161 -149 -173l-21 -44c57 -8 85 -33 85 -76c0 -49 -39 -83 -95 -83c-25 0 -45 5 -75 17v38c6 -2 11 -3 14 -4c20 -6 27 -8 40 -8c33 0 53 18 53 47c0 33 -23 46 -80 46l30 66c-116 13 -186 105 -186 247c0 151 82 251 206 251
c99 0 162 -60 173 -167h-68c-11 70 -48 107 -107 107c-79 0 -132 -76 -132 -190c0 -115 52 -189 133 -189c63 0 101 40 109 115h70z" />
    <glyph glyph-name="eacute" unicode="&#xe9;" horiz-adv-x="486" 
d="M441 245c0 -4 0 -11 -1 -20h-323c3 -116 51 -177 137 -177c52 0 83 20 110 72l65 -8c-29 -82 -89 -124 -176 -124c-127 0 -208 95 -208 244c0 155 80 255 204 255c116 0 192 -95 192 -242zM268 547h-58l104 137h100zM119 280h249c-8 96 -51 148 -122 148
c-69 0 -113 -51 -127 -148z" />
    <glyph glyph-name="egrave" unicode="&#xe8;" horiz-adv-x="486" 
d="M441 245c0 -4 0 -11 -1 -20h-323c3 -116 51 -177 137 -177c52 0 83 20 110 72l65 -8c-29 -82 -89 -124 -176 -124c-127 0 -208 95 -208 244c0 155 80 255 204 255c116 0 192 -95 192 -242zM196 684l104 -137h-59l-145 137h100zM119 280h249c-8 96 -51 148 -122 148
c-69 0 -113 -51 -127 -148z" />
    <glyph glyph-name="ecircumflex" unicode="&#xea;" horiz-adv-x="486" 
d="M441 245c0 -4 0 -11 -1 -20h-323c3 -116 51 -177 137 -177c52 0 83 20 110 72l65 -8c-29 -82 -89 -124 -176 -124c-127 0 -208 95 -208 244c0 155 80 255 204 255c116 0 192 -95 192 -242zM157 550h-68l113 140h80l113 -140h-67l-86 94zM119 280h249
c-8 96 -51 148 -122 148c-69 0 -113 -51 -127 -148z" />
    <glyph glyph-name="edieresis" unicode="&#xeb;" horiz-adv-x="486" 
d="M441 245c0 -4 0 -11 -1 -20h-323c3 -116 51 -177 137 -177c52 0 83 20 110 72l65 -8c-29 -82 -89 -124 -176 -124c-127 0 -208 95 -208 244c0 155 80 255 204 255c116 0 192 -95 192 -242zM89 630c0 29 23 52 52 52s53 -23 53 -52c0 -30 -24 -53 -53 -53s-52 24 -52 53z
M292 630c0 29 24 52 53 52s53 -23 53 -52c-1 -30 -24 -53 -53 -53s-53 24 -53 53zM119 280h249c-8 96 -51 148 -122 148c-69 0 -113 -51 -127 -148z" />
    <glyph glyph-name="iacute" unicode="&#xed;" horiz-adv-x="221" 
d="M72 0v474h74v-474h-74zM121 547h-58l103 137h100z" />
    <glyph glyph-name="igrave" unicode="&#xec;" horiz-adv-x="221" 
d="M74 0v474h74v-474h-74zM50 684l103 -137h-58l-146 137h101z" />
    <glyph glyph-name="icircumflex" unicode="&#xee;" horiz-adv-x="221" 
d="M73 0v474h74v-474h-74zM25 550h-68l113 140h80l114 -140h-68l-86 94z" />
    <glyph glyph-name="idieresis" unicode="&#xef;" horiz-adv-x="221" 
d="M73 0v474h74v-474h-74zM-9 628c0 28 23 51 51 51c29 0 52 -23 52 -51c0 -29 -23 -52 -52 -52c-28 0 -51 23 -51 52zM126 628c0 28 24 51 52 51c29 0 52 -23 52 -51c0 -29 -23 -52 -52 -52c-28 0 -52 23 -52 52z" />
    <glyph glyph-name="ntilde" unicode="&#xf1;" horiz-adv-x="504" 
d="M72 348c0 77 -1 85 -11 126h67c8 -23 9 -36 9 -69c32 55 81 82 145 82c101 0 151 -56 151 -169v-46v-272h-70v268v34c0 84 -30 123 -95 123c-80 0 -126 -59 -126 -160v-265h-70v313v35zM182 614c-22 0 -36 -17 -44 -55l-41 10c13 69 42 103 84 103c22 0 39 -6 68 -25
c35 -23 47 -29 61 -29c22 0 37 20 45 58l41 -9c-9 -66 -41 -108 -83 -108c-20 0 -42 9 -73 28c-34 22 -45 27 -58 27z" />
    <glyph glyph-name="oacute" unicode="&#xf3;" horiz-adv-x="504" 
d="M252 -12c-122 0 -207 102 -207 249c0 148 85 250 207 250s207 -102 207 -250c0 -147 -85 -249 -207 -249zM276 547h-58l103 137h101zM252 427c-81 0 -135 -76 -135 -190c0 -113 54 -189 135 -189s135 76 135 189c0 114 -54 190 -135 190z" />
    <glyph glyph-name="ograve" unicode="&#xf2;" horiz-adv-x="504" 
d="M252 -12c-122 0 -207 102 -207 249c0 148 85 250 207 250s207 -102 207 -250c0 -147 -85 -249 -207 -249zM205 684l103 -137h-58l-145 137h100zM252 427c-81 0 -135 -76 -135 -190c0 -113 54 -189 135 -189s135 76 135 189c0 114 -54 190 -135 190z" />
    <glyph glyph-name="ocircumflex" unicode="&#xf4;" horiz-adv-x="504" 
d="M252 -12c-122 0 -207 102 -207 249c0 148 85 250 207 250s207 -102 207 -250c0 -147 -85 -249 -207 -249zM167 550h-68l113 140h80l113 -140h-68l-85 94zM252 427c-81 0 -135 -76 -135 -190c0 -113 54 -189 135 -189s135 76 135 189c0 114 -54 190 -135 190z" />
    <glyph glyph-name="odieresis" unicode="&#xf6;" horiz-adv-x="504" 
d="M252 -12c-122 0 -207 102 -207 249c0 148 85 250 207 250s207 -102 207 -250c0 -147 -85 -249 -207 -249zM97 630c0 29 24 52 53 52s53 -23 53 -52c0 -30 -24 -53 -53 -53s-53 24 -53 53zM301 630c0 29 24 52 53 52s52 -23 52 -52c0 -30 -23 -53 -52 -53s-53 24 -53 53z
M252 427c-81 0 -135 -76 -135 -190c0 -113 54 -189 135 -189s135 76 135 189c0 114 -54 190 -135 190z" />
    <glyph glyph-name="otilde" unicode="&#xf5;" horiz-adv-x="504" 
d="M252 -12c-122 0 -207 102 -207 249c0 148 85 250 207 250s207 -102 207 -250c0 -147 -85 -249 -207 -249zM189 614c-23 0 -37 -17 -45 -55l-40 10c13 69 41 103 83 103c22 0 40 -6 69 -25c35 -23 46 -29 60 -29c22 0 37 20 45 58l41 -9c-8 -66 -40 -108 -83 -108
c-19 0 -41 9 -73 28c-34 22 -45 27 -57 27zM252 427c-81 0 -135 -76 -135 -190c0 -113 54 -189 135 -189s135 76 135 189c0 114 -54 190 -135 190z" />
    <glyph glyph-name="uacute" unicode="&#xfa;" horiz-adv-x="497" 
d="M71 184v290h69v-290c0 -98 27 -134 98 -134c46 0 85 25 103 68c9 21 13 47 13 87v269h70v-330v-40c0 -62 1 -72 11 -104h-68c-8 22 -10 36 -10 63c-28 -53 -66 -75 -127 -75c-72 0 -131 37 -149 95c-8 26 -10 47 -10 101zM265 547h-58l103 137h101z" />
    <glyph glyph-name="ugrave" unicode="&#xf9;" horiz-adv-x="497" 
d="M71 184v290h69v-290c0 -98 27 -134 98 -134c46 0 85 25 103 68c9 21 13 47 13 87v269h70v-330v-40c0 -62 1 -72 11 -104h-68c-8 22 -10 36 -10 63c-28 -53 -66 -75 -127 -75c-72 0 -131 37 -149 95c-8 26 -10 47 -10 101zM211 684l104 -137h-58l-146 137h100z" />
    <glyph glyph-name="ucircumflex" unicode="&#xfb;" horiz-adv-x="497" 
d="M71 184v290h69v-290c0 -98 27 -134 98 -134c46 0 85 25 103 68c9 21 13 47 13 87v269h70v-330v-40c0 -62 1 -72 11 -104h-68c-8 22 -10 36 -10 63c-28 -53 -66 -75 -127 -75c-72 0 -131 37 -149 95c-8 26 -10 47 -10 101zM168 550h-68l113 140h80l113 -140h-68l-85 94z
" />
    <glyph glyph-name="udieresis" unicode="&#xfc;" horiz-adv-x="497" 
d="M71 184v290h69v-290c0 -98 27 -134 98 -134c46 0 85 25 103 68c9 21 13 47 13 87v269h70v-330v-40c0 -62 1 -72 11 -104h-68c-8 22 -10 36 -10 63c-28 -53 -66 -75 -127 -75c-72 0 -131 37 -149 95c-8 26 -10 47 -10 101zM94 630c0 29 24 52 53 52s52 -23 52 -52
c0 -30 -23 -53 -52 -53s-53 24 -53 53zM298 630c0 29 23 52 52 52s53 -23 53 -52c0 -30 -24 -53 -53 -53s-52 24 -52 53z" />
    <glyph glyph-name="degree" unicode="&#xb0;" 
d="M250 402c-78 0 -142 62 -142 138c0 77 64 138 142 138s141 -62 141 -138s-63 -138 -141 -138zM250 633c-52 0 -94 -42 -94 -93s42 -93 94 -93s94 42 94 93s-42 93 -94 93z" />
    <glyph glyph-name="registered" unicode="&#xae;" 
d="M71 557c0 105 85 190 190 190c106 0 191 -85 191 -190c0 -106 -85 -191 -191 -191c-105 0 -190 85 -190 191zM416 557c0 86 -69 156 -155 156c-85 0 -154 -70 -154 -156c0 -87 69 -157 154 -157c86 0 155 70 155 157zM192 447v220h44c77 0 107 -18 107 -64
c0 -28 -17 -50 -46 -60l52 -96h-40l-48 90h-34v-90h-35zM227 637v-71h12h11c39 0 56 11 56 37c0 27 -14 34 -69 34h-10z" />
    <glyph glyph-name="copyright" unicode="&#xa9;" horiz-adv-x="789" 
d="M50 335c0 190 154 345 345 344c190 0 344 -154 344 -344c0 -191 -154 -345 -345 -345c-190 0 -344 154 -344 345zM694 334c0 168 -134 304 -299 304c-166 0 -299 -136 -299 -304s133 -305 299 -305c165 0 299 137 299 305zM408 546c82 0 134 -45 144 -123h-51
c-12 53 -42 77 -94 77c-72 0 -118 -63 -118 -161c0 -99 45 -161 119 -161c58 0 92 35 99 101h51c-6 -92 -61 -147 -148 -147c-109 0 -178 81 -178 206c0 126 69 208 176 208z" />
    <glyph glyph-name="trademark" unicode="&#x2122;" horiz-adv-x="779" 
d="M10 621v46h271v-46h-109v-354h-54v354h-108zM338 267v400h77l120 -336l120 336h77v-400h-52v330l-119 -330h-52l-120 330v-330h-51z" />
    <glyph glyph-name="notequal" unicode="&#x2260;" 
d="M33 446h239l55 113l49 -20l-45 -93h136v-63h-165l-45 -93h210v-63h-239l-55 -115l-49 19l46 96h-137v63h166l45 93h-211v63z" />
    <glyph glyph-name="infinity" unicode="&#x221e;" horiz-adv-x="667" 
d="M498 187c-64 0 -114 33 -163 106c-51 -72 -103 -106 -165 -106c-90 0 -152 64 -152 155c0 88 64 151 152 151c61 0 114 -34 162 -105c50 73 101 105 166 105c89 0 150 -63 150 -154c0 -89 -62 -152 -150 -152zM490 433c-45 0 -77 -25 -121 -92c42 -67 77 -94 121 -94
c52 0 89 39 89 94c0 53 -38 92 -89 92zM177 247c45 0 75 24 121 93c-43 68 -77 93 -122 93c-51 0 -88 -39 -88 -92c0 -54 38 -94 89 -94z" />
    <glyph glyph-name="plusminus" unicode="&#xb1;" horiz-adv-x="533" 
d="M294 560v-193h186v-52h-186v-187h-55v187h-186v52h186v193h55zM53 29v53h427v-53h-427z" />
    <glyph glyph-name="lessequal" unicode="&#x2264;" 
d="M33 411l434 196v-67l-359 -159l359 -158v-67l-434 194v61zM33 127h434v-66h-434v66z" />
    <glyph glyph-name="greaterequal" unicode="&#x2265;" 
d="M467 350l-434 -194v67l359 158l-359 159v67l434 -196v-61zM467 61h-434v66h434v-66z" />
    <glyph glyph-name="mu" unicode="&#xb5;" 
d="M118 -167h-70v647h70v-273c0 -82 14 -117 56 -145c21 -13 47 -21 73 -21c45 0 85 23 109 64c20 31 26 59 26 112v263h70v-480h-70v87c-31 -69 -73 -100 -137 -100c-57 0 -95 23 -127 74v-228z" />
    <glyph glyph-name="partialdiff" unicode="&#x2202;" 
d="M227 562c-50 28 -79 37 -141 46l9 62c70 -9 93 -15 138 -34c81 -35 146 -97 187 -178c31 -63 49 -139 49 -214c0 -152 -88 -255 -218 -255c-120 0 -220 102 -220 225s92 221 209 221c64 0 104 -20 148 -75l-6 16c-26 63 -35 79 -63 111c-26 31 -51 51 -92 75zM397 217
c0 97 -59 165 -144 165c-83 0 -151 -76 -151 -171c0 -92 67 -168 149 -168s146 76 146 174z" />
    <glyph glyph-name="summation" unicode="&#x2211;" horiz-adv-x="667" 
d="M28 750h569v-228h-64l-6 162h-420l252 -414l-252 -455h429l4 161h66v-226h-578v74l249 446l-249 408v72z" />
    <glyph glyph-name="product" unicode="&#x220f;" horiz-adv-x="697" 
d="M36 685v65h625v-65h-80v-870h80v-65h-232v65h82v870h-326v-870h82v-65h-231v65h79v870h-79z" />
    <glyph glyph-name="pi" unicode="&#x3c0;" horiz-adv-x="576" 
d="M172 0h-70v416h-75v63h522v-63h-73v-416h-70v416h-234v-416z" />
    <glyph glyph-name="integral" unicode="&#x222b;" 
d="M154 -249c-24 0 -36 2 -56 10l15 62c22 -8 30 -10 45 -10c49 0 57 16 57 120v621c0 107 4 129 26 157c21 26 53 39 95 39c22 0 35 -2 66 -11l-15 -62c-21 8 -30 10 -45 10c-46 0 -56 -18 -57 -101v-50v-590c0 -99 -3 -121 -20 -146c-20 -31 -59 -49 -111 -49z" />
    <glyph glyph-name="Omega" unicode="&#x3a9;" horiz-adv-x="667" 
d="M289 0h-261v63h182c-124 73 -182 169 -182 300c0 180 134 320 306 320s304 -140 304 -320c0 -131 -58 -228 -180 -300h180v-63h-260v57c65 37 97 64 129 108c40 56 60 119 60 190c0 147 -103 265 -232 265c-134 0 -235 -114 -235 -266c0 -128 62 -225 189 -297v-57z" />
    <glyph glyph-name="logicalnot" unicode="&#xac;" 
d="M467 0h-70v201h-364v66h434v-267z" />
    <glyph glyph-name="radical" unicode="&#x221a;" horiz-adv-x="667" 
d="M410 829h257v-65h-197l-218 -764h-86l-83 300h-83v66h140l38 -131c3 -13 4 -16 14 -65l12 -58l3 -15h5l4 20l16 66l25 106l43 153z" />
    <glyph glyph-name="approxequal" unicode="&#x2248;" 
d="M141 421c-35 0 -61 -21 -90 -73l-41 27c38 80 78 113 136 113c27 0 58 -9 112 -35c60 -28 73 -32 98 -32c38 0 61 17 92 70l42 -26c-39 -77 -82 -111 -142 -111c-19 0 -57 10 -83 22l-57 27c-28 12 -50 18 -67 18zM141 256c-35 0 -61 -21 -90 -74l-41 27
c37 80 78 114 136 114c27 0 58 -9 112 -35c58 -27 74 -32 98 -32c38 0 60 17 92 69l42 -25c-38 -77 -82 -111 -143 -111c-17 0 -56 10 -82 22l-57 26c-28 13 -50 19 -67 19z" />
    <glyph glyph-name="Delta" unicode="&#x394;" horiz-adv-x="667" 
d="M639 0h-611l267 667h75zM333 581l-205 -516h409z" />
    <glyph glyph-name="nbspace" unicode="&#xa0;" horiz-adv-x="333" 
d="M0 0z" />
    <glyph glyph-name="Agrave" unicode="&#xc0;" horiz-adv-x="566" 
d="M21 0l229 671h66l229 -671h-77l-60 177h-250l-60 -177h-77zM195 851l138 -137h-72l-166 137h100zM178 242h210l-105 331z" />
    <glyph glyph-name="Atilde" unicode="&#xc3;" horiz-adv-x="566" 
d="M20 0l230 671h65l230 -671h-77l-60 177h-251l-59 -177h-78zM211 790c-28 0 -46 -20 -52 -55l-43 16c16 67 45 98 97 98c23 0 42 -7 71 -26c36 -24 48 -29 65 -29c27 0 43 18 51 59l42 -17c-10 -64 -43 -100 -93 -100c-22 0 -47 8 -72 23c-24 14 -38 23 -43 25
c-7 4 -15 6 -23 6zM178 242h210l-105 331z" />
    <glyph glyph-name="Otilde" unicode="&#xd5;" horiz-adv-x="646" 
d="M323 -11c-161 0 -272 139 -272 344s111 345 272 345c162 0 272 -140 272 -345s-110 -344 -272 -344zM251 790c-28 0 -46 -19 -51 -55l-44 16c16 67 46 98 97 98c23 0 42 -7 71 -26c37 -24 48 -29 65 -29c28 0 44 18 52 59l41 -17c-10 -64 -43 -100 -93 -100
c-22 0 -47 8 -72 23c-24 14 -38 23 -43 25c-7 4 -14 6 -23 6zM323 612c-116 0 -192 -110 -192 -279c0 -168 76 -279 192 -279s192 111 192 279c0 169 -76 279 -192 279z" />
    <glyph glyph-name="divide" unicode="&#xf7;" horiz-adv-x="533" 
d="M218 194c0 27 22 48 48 48c27 0 49 -21 49 -48c0 -26 -22 -48 -49 -48c-26 0 -48 22 -48 48zM218 472c0 27 22 49 48 49c27 0 49 -22 49 -49c0 -26 -22 -48 -49 -48c-26 0 -48 22 -48 48zM53 309v53h427v-53h-427z" />
    <glyph glyph-name="lozenge" unicode="&#x25ca;" horiz-adv-x="667" 
d="M74 334l259 359l260 -359l-260 -360zM530 334l-197 270l-197 -270l197 -271z" />
    <glyph glyph-name="ydieresis" unicode="&#xff;" horiz-adv-x="438" 
d="M181 -5l-165 479h75l129 -395l133 395h73l-156 -441l-21 -60c-29 -80 -57 -122 -101 -148c-29 -16 -62 -25 -100 -25c-5 0 -12 1 -21 1v62h5c83 0 109 22 144 118zM64 630c0 29 23 52 52 52s53 -23 53 -52c0 -30 -24 -53 -53 -53s-52 24 -52 53zM267 630
c0 29 24 52 53 52s53 -23 53 -52c-1 -30 -24 -53 -53 -53s-53 24 -53 53z" />
    <glyph glyph-name="Ydieresis" unicode="&#x178;" horiz-adv-x="512" 
d="M220 280l-208 387h86l159 -312l158 312h85l-208 -387l1 -280h-74zM110 783c0 31 25 57 57 57c31 0 57 -26 57 -57c0 -32 -26 -57 -57 -57s-57 25 -57 57zM288 783c0 31 26 57 57 57c32 0 57 -26 57 -57c0 -32 -26 -57 -57 -57s-57 25 -57 57z" />
    <glyph glyph-name="Acircumflex" unicode="&#xc2;" horiz-adv-x="566" 
d="M20 0l230 671h65l230 -671h-77l-60 177h-251l-59 -177h-78zM182 717h-69l130 131h80l130 -131h-69l-101 88zM178 242h210l-105 331z" />
    <glyph glyph-name="Ecircumflex" unicode="&#xca;" horiz-adv-x="502" 
d="M160 602v-224h271v-65h-271v-248h298v-65h-372v667h366v-65h-292zM172 717h-70l130 131h80l130 -131h-69l-101 88z" />
    <glyph glyph-name="Aacute" unicode="&#xc1;" horiz-adv-x="566" 
d="M20 0l230 671h65l230 -671h-77l-60 177h-251l-59 -177h-78zM308 714h-72l138 137h100zM178 242h210l-105 331z" />
    <glyph glyph-name="Edieresis" unicode="&#xcb;" horiz-adv-x="502" 
d="M160 602v-224h271v-65h-271v-248h298v-65h-372v667h366v-65h-292zM126 783c0 31 26 56 57 56c32 0 57 -25 57 -56c0 -32 -26 -57 -57 -57s-57 26 -57 57zM305 783c0 31 25 56 56 56c32 0 57 -25 57 -56c0 -32 -25 -57 -57 -57c-31 0 -56 26 -56 57z" />
    <glyph glyph-name="Egrave" unicode="&#xc8;" horiz-adv-x="502" 
d="M155 602v-224h271v-65h-271v-248h298v-65h-372v667h366v-65h-292zM182 851l138 -137h-72l-166 137h100z" />
    <glyph glyph-name="Iacute" unicode="&#xcd;" horiz-adv-x="246" 
d="M161 667v-667h-76v667h76zM150 714h-72l138 137h100z" />
    <glyph glyph-name="Icircumflex" unicode="&#xce;" horiz-adv-x="246" 
d="M161 667v-667h-76v667h76zM23 717h-70l130 131h80l130 -131h-69l-101 88z" />
    <glyph glyph-name="Idieresis" unicode="&#xcf;" horiz-adv-x="246" 
d="M161 667v-667h-76v667h76zM-2 783c0 30 25 55 55 55c31 0 55 -25 55 -55c0 -31 -25 -56 -55 -56s-55 25 -55 56zM138 783c0 30 25 55 55 55c31 0 55 -25 55 -55c0 -31 -25 -56 -55 -56s-55 25 -55 56z" />
    <glyph glyph-name="Igrave" unicode="&#xcc;" horiz-adv-x="246" 
d="M161 667v-667h-76v667h76zM25 851l138 -137h-72l-166 137h100z" />
    <glyph glyph-name="Oacute" unicode="&#xd3;" horiz-adv-x="646" 
d="M323 -11c-161 0 -272 139 -272 344s111 345 272 345c162 0 272 -140 272 -345s-110 -344 -272 -344zM346 714h-72l138 137h100zM323 612c-116 0 -192 -110 -192 -279c0 -168 76 -279 192 -279s192 111 192 279c0 169 -76 279 -192 279z" />
    <glyph glyph-name="Ocircumflex" unicode="&#xd4;" horiz-adv-x="646" 
d="M323 -11c-161 0 -272 139 -272 344s111 345 272 345c162 0 272 -140 272 -345s-110 -344 -272 -344zM223 717h-70l130 131h80l130 -131h-69l-101 88zM323 612c-116 0 -192 -110 -192 -279c0 -168 76 -279 192 -279s192 111 192 279c0 169 -76 279 -192 279z" />
    <glyph glyph-name="apple" unicode="&#xf8ff;" horiz-adv-x="667" 
d="M332 518c2 97 57 161 148 173v-10c0 -87 -69 -163 -148 -163zM479 528c61 0 109 -24 144 -71c-58 -45 -80 -84 -80 -140c0 -66 37 -122 99 -148c-50 -124 -112 -196 -169 -196c-13 0 -27 3 -40 9l-41 17c-5 2 -16 4 -33 4c-20 0 -45 -3 -51 -5l-43 -18
c-14 -5 -27 -8 -38 -8c-36 0 -75 29 -111 82c-53 78 -84 172 -84 252c0 130 77 220 187 220c24 0 45 -5 77 -18c22 -8 38 -12 48 -12s25 3 43 10c55 20 62 22 92 22z" />
    <glyph glyph-name="Ograve" unicode="&#xd2;" horiz-adv-x="646" 
d="M323 -11c-161 0 -272 139 -272 344s111 345 272 345c162 0 272 -140 272 -345s-110 -344 -272 -344zM239 851l138 -137h-72l-166 137h100zM323 612c-116 0 -192 -110 -192 -279c0 -168 76 -279 192 -279s192 111 192 279c0 169 -76 279 -192 279z" />
    <glyph glyph-name="Uacute" unicode="&#xda;" horiz-adv-x="625" 
d="M77 273v394h74v-393c0 -118 6 -145 39 -177c28 -27 73 -43 122 -43c83 0 143 41 155 106c6 29 6 43 6 114v393h75v-394v-49c0 -82 -15 -128 -53 -168c-43 -45 -105 -67 -183 -67c-107 0 -188 45 -219 124c-11 28 -16 62 -16 111v49zM335 714h-72l138 137h100z" />
    <glyph glyph-name="Ucircumflex" unicode="&#xdb;" horiz-adv-x="625" 
d="M77 273v394h74v-393c0 -118 6 -145 39 -177c28 -27 73 -43 122 -43c83 0 143 41 155 106c6 29 6 43 6 114v393h75v-394v-49c0 -82 -15 -128 -53 -168c-43 -45 -105 -67 -183 -67c-107 0 -188 45 -219 124c-11 28 -16 62 -16 111v49zM212 717h-70l130 131h80l130 -131h-69
l-101 88z" />
    <glyph glyph-name="Ugrave" unicode="&#xd9;" horiz-adv-x="625" 
d="M77 273v394h74v-393c0 -118 6 -145 39 -177c28 -27 73 -43 122 -43c83 0 143 41 155 106c6 29 6 43 6 114v393h75v-394v-49c0 -82 -15 -128 -53 -168c-43 -45 -105 -67 -183 -67c-107 0 -188 45 -219 124c-11 28 -16 62 -16 111v49zM231 851l138 -137h-72l-166 137h100z
" />
    </font>
</defs>
</svg>
