<?xml version="1.0" standalone="no"?>
<!DOCTYPE svg PUBLIC "-//W3C//DTD SVG 1.1//EN" "http://www.w3.org/Graphics/SVG/1.1/DTD/svg11.dtd" >
<svg xmlns="http://www.w3.org/2000/svg" xmlns:xlink="http://www.w3.org/1999/xlink" version="1.1">
<metadata>
Created by FontForge 20150318 at Thu May 21 17:52:29 2015
 By uniteet7
CorporateS-Light
</metadata>
<defs>
<font id="CorporateS-Light" horiz-adv-x="500" >
  <font-face 
    font-family="CorporateS-Light"
    font-weight="500"
    font-stretch="normal"
    units-per-em="1000"
    panose-1="0 0 0 0 0 0 0 0 0 0"
    ascent="800"
    descent="-200"
    x-height="473"
    cap-height="667"
    bbox="-155 -250 869 876"
    underline-thickness="20"
    underline-position="-156"
    stemh="48"
    stemv="54"
    unicode-range="U+0020-FB02"
  />
<missing-glyph horiz-adv-x="280" 
 />
    <glyph glyph-name=".notdef" horiz-adv-x="280" 
 />
    <glyph glyph-name="space" unicode=" " horiz-adv-x="250" 
d="M0 0z" />
    <glyph glyph-name="exclam" unicode="!" horiz-adv-x="248" 
d="M101 176l-6 480h58l-11 -480h-41zM72 40c0 28 23 51 52 51c28 0 52 -23 52 -51s-24 -51 -52 -51s-52 23 -52 51z" />
    <glyph glyph-name="quotedbl" unicode="&#x22;" horiz-adv-x="302" 
d="M117 667l-8 -267h-44l-8 267h60zM245 667l-8 -267h-44l-7 267h59z" />
    <glyph glyph-name="numbersign" unicode="#" horiz-adv-x="600" 
d="M423 262h114l-8 -46h-113l-35 -216h-51l34 216h-158l-34 -216h-52l34 216h-113l7 46h114l24 154h-114l7 46h114l33 205h51l-32 -205h158l32 205h52l-33 -205h114l-7 -46h-114zM371 262l24 154h-157l-25 -154h158z" />
    <glyph glyph-name="dollar" unicode="$" horiz-adv-x="520" 
d="M388 532c-7 56 -45 88 -111 94v-255l5 -2c70 -27 102 -42 127 -63c41 -33 62 -79 62 -133c0 -103 -77 -176 -194 -183v-68h-34v67c-60 4 -100 18 -135 48c-40 35 -56 74 -61 143h56c7 -86 53 -132 140 -140v281l-6 3l-52 20c-83 32 -122 82 -122 158c0 97 72 167 180 175
v62h34v-62c48 -3 77 -12 109 -34c39 -28 56 -59 62 -111h-60zM243 384v242c-76 -8 -123 -54 -123 -120c0 -55 27 -84 107 -116zM277 309v-268c83 7 134 55 134 125c0 65 -32 103 -118 136z" />
    <glyph glyph-name="percent" unicode="%" horiz-adv-x="526" 
d="M43 0l393 667h48l-393 -667h-48zM505 154c0 -90 -53 -160 -122 -160c-69 1 -121 70 -121 160c0 91 52 160 121 160s122 -69 122 -160zM264 512c0 -90 -52 -160 -121 -160s-122 70 -122 160c0 91 53 160 122 160s121 -69 121 -160zM312 154c0 -66 30 -115 71 -115
s72 49 72 115c0 67 -31 116 -72 116s-71 -49 -71 -116zM71 512c0 -66 31 -115 72 -115s71 49 71 115c0 67 -30 116 -71 116s-72 -50 -72 -116z" />
    <glyph glyph-name="ampersand" unicode="&#x26;" horiz-adv-x="596" 
d="M413 161c18 34 24 68 26 137h48v-12c0 -77 -11 -123 -41 -170l86 -116h-66l-51 70c-47 -52 -98 -74 -170 -74c-118 0 -196 68 -196 173c0 52 18 95 56 135c26 27 37 37 83 70l-14 19c-53 68 -66 97 -66 140c0 75 57 127 140 127c79 0 127 -46 127 -120
c0 -63 -30 -111 -112 -176zM221 421c2 -3 6 -8 11 -15c65 50 90 88 90 136c0 43 -31 72 -77 72c-48 0 -84 -32 -84 -75c0 -34 5 -43 60 -118zM384 111l-164 220c-45 -33 -53 -39 -72 -59c-26 -27 -42 -65 -42 -101c0 -74 61 -130 141 -130c54 0 101 24 137 70z" />
    <glyph glyph-name="quoteright" unicode="&#x2019;" horiz-adv-x="234" 
d="M172 610c0 -48 -22 -95 -71 -152h-63c48 45 70 78 78 117h-9c-26 0 -48 23 -48 50c0 29 24 53 55 53c35 0 58 -28 58 -68z" />
    <glyph glyph-name="parenleft" unicode="(" horiz-adv-x="272" 
d="M77 236c0 194 42 345 121 436h41c-71 -96 -107 -243 -107 -436s36 -340 107 -436h-41c-79 90 -121 242 -121 436z" />
    <glyph glyph-name="parenright" unicode=")" horiz-adv-x="272" 
d="M196 236c0 -194 -43 -346 -121 -436h-42c71 96 107 243 107 436s-36 340 -107 436h42c79 -91 121 -242 121 -436z" />
    <glyph glyph-name="asterisk" unicode="*" 
d="M109 564l118 -38v124h46v-124l118 38l14 -43l-119 -38l73 -101l-36 -26l-73 100l-73 -100l-36 27l73 100l-118 38z" />
    <glyph glyph-name="plus" unicode="+" horiz-adv-x="520" 
d="M280 547v-192h186v-38h-186v-192h-40v192h-186v38h186v192h40z" />
    <glyph glyph-name="comma" unicode="," horiz-adv-x="234" 
d="M172 33c0 -48 -22 -95 -71 -152h-63c48 45 70 79 78 117h-9c-26 0 -48 23 -48 50c0 29 24 53 55 53c35 0 58 -28 58 -68z" />
    <glyph glyph-name="hyphen" unicode="-" horiz-adv-x="279" 
d="M0 230v43h279v-43h-279z" />
    <glyph glyph-name="period" unicode="." horiz-adv-x="257" 
d="M77 40c0 28 23 51 51 51c29 0 52 -23 52 -51s-23 -51 -52 -51c-28 0 -51 23 -51 51z" />
    <glyph glyph-name="slash" unicode="/" horiz-adv-x="575" 
d="M128 -133h-62l381 800h62z" />
    <glyph glyph-name="zero" unicode="0" horiz-adv-x="520" 
d="M54 325c0 208 78 333 206 333s206 -125 206 -333s-78 -333 -206 -333s-206 125 -206 333zM364 546c-21 41 -59 65 -104 65c-45 -1 -83 -24 -104 -65c-29 -55 -44 -132 -44 -221s16 -167 44 -221c21 -41 59 -65 104 -65s83 24 104 65c28 55 44 132 44 221
c0 88 -15 166 -44 221z" />
    <glyph glyph-name="one" unicode="1" horiz-adv-x="520" 
d="M240 521h-118v40c84 4 116 27 133 95h38v-656h-53v521z" />
    <glyph glyph-name="two" unicode="2" horiz-adv-x="520" 
d="M270 608c-80 0 -123 -49 -129 -148h-53c2 129 66 198 185 198c103 0 172 -61 172 -152c0 -47 -20 -94 -61 -149l-60 -81l-79 -106l-67 -91l-23 -30h301v-49h-369l-1 42l21 28l59 81l68 92l67 90c72 98 86 125 86 172c0 62 -47 103 -117 103z" />
    <glyph glyph-name="three" unicode="3" horiz-adv-x="520" 
d="M256 609c-74 0 -114 -39 -125 -123h-52c6 110 72 172 179 172c105 0 175 -63 175 -157c0 -69 -31 -115 -96 -145c81 -30 120 -83 120 -166c0 -120 -79 -199 -201 -199c-121 0 -196 69 -196 179v12h50c3 -92 52 -141 142 -141c91 0 147 55 147 145c0 89 -55 140 -152 140
c-9 0 -14 -1 -26 -2v52c13 -1 19 -1 27 -1c77 0 127 47 127 122c0 69 -46 112 -119 112z" />
    <glyph glyph-name="four" unicode="4" horiz-adv-x="520" 
d="M363 656v-440h112v-51h-111v-171h-56v171h-266v42l269 449h52zM98 216h212l2 359z" />
    <glyph glyph-name="five" unicode="5" horiz-adv-x="520" 
d="M97 318l40 332h289l-8 -49h-233l-28 -212c30 36 66 52 116 52c113 0 186 -85 186 -214c0 -138 -83 -235 -202 -235c-99 0 -167 60 -174 156h52c12 -70 55 -109 121 -109c87 0 146 76 146 186c0 100 -52 165 -132 165c-56 0 -93 -23 -121 -77z" />
    <glyph glyph-name="six" unicode="6" horiz-adv-x="520" 
d="M209 521c35 48 75 96 122 146h62c-48 -52 -65 -73 -105 -126c-39 -50 -53 -72 -88 -130c30 17 52 23 83 23c102 0 177 -93 177 -218c0 -134 -75 -224 -186 -224s-188 91 -188 223c0 92 39 190 123 306zM403 213c0 102 -54 173 -130 173s-129 -71 -129 -173
s53 -174 129 -174c77 0 130 72 130 174z" />
    <glyph glyph-name="seven" unicode="7" horiz-adv-x="520" 
d="M102 599v51h393v-49l-322 -601h-62l322 599h-331z" />
    <glyph glyph-name="eight" unicode="8" horiz-adv-x="520" 
d="M71 175c0 77 33 132 99 167c-53 26 -81 75 -81 142c0 99 74 174 171 174s171 -75 171 -174c0 -67 -28 -116 -81 -142c66 -35 99 -91 99 -167c0 -108 -77 -183 -189 -183s-189 75 -189 183zM373 486c0 74 -46 125 -113 125c-67 -1 -113 -51 -113 -125
c0 -73 46 -124 113 -124s113 51 113 124zM391 178c0 83 -52 138 -131 138s-131 -55 -131 -138s53 -139 131 -139s131 56 131 139z" />
    <glyph glyph-name="nine" unicode="9" horiz-adv-x="520" 
d="M311 129c-35 -48 -76 -97 -122 -146h-62c48 52 65 73 105 126c38 50 53 72 88 130c-30 -17 -52 -23 -84 -23c-101 0 -177 93 -177 218c0 134 76 224 186 224c112 0 189 -91 189 -223c0 -92 -39 -190 -123 -306zM117 437c0 -102 53 -173 130 -173c76 0 129 71 129 173
s-53 174 -129 174c-77 0 -130 -72 -130 -174z" />
    <glyph glyph-name="colon" unicode=":" horiz-adv-x="257" 
d="M77 40c0 28 23 51 51 51c29 0 52 -23 52 -51s-23 -51 -52 -51c-28 0 -51 23 -51 51zM77 421c0 28 23 51 51 51c29 0 52 -23 52 -51s-23 -51 -52 -51c-28 0 -51 23 -51 51z" />
    <glyph glyph-name="semicolon" unicode=";" horiz-adv-x="234" 
d="M60 421c0 28 23 51 51 51c29 0 52 -23 52 -51s-23 -51 -52 -51c-28 0 -51 23 -51 51zM172 33c0 -48 -22 -95 -71 -152h-63c48 45 70 79 78 117h-9c-26 0 -48 23 -48 50c0 29 24 53 55 53c35 0 58 -28 58 -68z" />
    <glyph glyph-name="less" unicode="&#x3c;" 
d="M33 359l434 196v-52l-378 -168l378 -167v-52l-434 196v47z" />
    <glyph glyph-name="equal" unicode="=" horiz-adv-x="520" 
d="M54 377v40h412v-40h-412zM54 255v40h412v-40h-412z" />
    <glyph glyph-name="greater" unicode="&#x3e;" 
d="M467 312l-433 -196v52l377 167l-377 168v52l433 -197v-46z" />
    <glyph glyph-name="question" unicode="?" horiz-adv-x="410" 
d="M128 40c0 28 23 51 52 51c28 0 52 -23 52 -51s-24 -51 -52 -51s-52 23 -52 51zM208 191c0 -2 0 -6 1 -12h-55v12v42v6c0 90 3 98 70 166c52 53 68 80 68 118c0 52 -34 82 -90 82c-65 0 -98 -30 -106 -100h-50c5 98 62 153 159 153c90 0 147 -53 147 -137
c0 -52 -18 -83 -86 -149c-50 -48 -58 -65 -58 -123v-58z" />
    <glyph glyph-name="at" unicode="@" horiz-adv-x="733" 
d="M488 422l14 72h42l-42 -217c-4 -18 -6 -39 -6 -48c0 -31 16 -50 42 -50c63 0 119 95 119 201c0 155 -111 260 -275 260c-174 0 -303 -131 -303 -307c0 -131 73 -245 182 -285c41 -14 84 -22 133 -22c64 0 130 13 184 37c8 3 19 8 34 15l13 -37c-48 -24 -68 -30 -116 -41
c-39 -8 -77 -12 -115 -12c-214 0 -359 140 -359 347c0 196 148 343 348 343c185 0 316 -123 316 -296c0 -127 -76 -239 -163 -239c-42 0 -70 26 -72 70c-31 -48 -74 -73 -125 -73c-82 0 -141 67 -141 162c0 114 78 205 176 205c58 0 94 -27 114 -85zM345 180
c73 0 125 74 125 177c0 67 -36 108 -95 108c-71 0 -129 -72 -129 -163c0 -75 39 -122 99 -122z" />
    <glyph glyph-name="A" unicode="A" horiz-adv-x="554" 
d="M24 0l231 672h44l231 -672h-60l-65 189h-256l-66 -189h-59zM277 591l-112 -352h223z" />
    <glyph glyph-name="B" unicode="B" horiz-adv-x="537" 
d="M88 0v667h102c94 0 129 -4 166 -17c65 -22 103 -77 103 -149c0 -76 -36 -124 -111 -147c99 -24 145 -78 145 -170c0 -81 -42 -146 -107 -167c-43 -14 -81 -17 -196 -17h-102zM144 617v-244h66c72 0 107 7 137 25c33 19 53 57 53 102c0 51 -25 89 -67 104
c-28 10 -53 13 -126 13h-63zM144 323v-273h70c84 0 122 4 154 18c39 17 63 62 63 119c0 61 -32 108 -85 124c-31 10 -60 12 -133 12h-69z" />
    <glyph glyph-name="C" unicode="C" horiz-adv-x="602" 
d="M324 678c119 0 200 -69 217 -185h-56c-22 91 -74 134 -162 134c-125 0 -204 -114 -204 -293c0 -182 78 -294 205 -294c100 0 160 63 174 179h55c-14 -146 -96 -230 -225 -230c-167 0 -271 132 -271 343c0 210 105 346 267 346z" />
    <glyph glyph-name="D" unicode="D" horiz-adv-x="620" 
d="M88 0v667h84c86 0 94 -1 134 -6c41 -5 78 -16 109 -33c92 -52 148 -163 148 -294c0 -138 -59 -249 -161 -300c-55 -28 -96 -34 -234 -34h-80zM144 617v-567h46h36c76 0 116 9 159 34c28 17 51 39 68 65c32 50 48 110 48 184c0 124 -47 218 -130 258
c-45 22 -72 26 -195 26h-32z" />
    <glyph glyph-name="E" unicode="E" horiz-adv-x="490" 
d="M144 617v-247h273v-50h-273v-270h297v-50h-353v667h349v-50h-293z" />
    <glyph glyph-name="F" unicode="F" horiz-adv-x="477" 
d="M144 617v-247h273v-50h-270v-320h-59v667h349v-50h-293z" />
    <glyph glyph-name="G" unicode="G" horiz-adv-x="615" 
d="M359 272v55h191v-273c-61 -44 -130 -65 -210 -65c-179 0 -283 127 -283 345c0 212 104 344 271 344c118 0 195 -67 213 -185h-56c-14 54 -30 81 -60 104c-27 20 -60 30 -98 30c-129 0 -208 -110 -208 -292c0 -189 79 -295 220 -295c54 0 102 13 156 43v190z" />
    <glyph glyph-name="H" unicode="H" horiz-adv-x="619" 
d="M144 667v-294h330v294h57v-667h-57v326h-330v-326h-56v667h56z" />
    <glyph glyph-name="I" unicode="I" horiz-adv-x="232" 
d="M146 667v-667h-60v667h60z" />
    <glyph glyph-name="J" unicode="J" horiz-adv-x="272" 
d="M126 136v531h60v-532c0 -84 -2 -101 -14 -127c-23 -51 -79 -80 -153 -80c-5 0 -11 0 -20 1v50h9c55 0 92 17 107 50c10 21 11 35 11 107z" />
    <glyph glyph-name="K" unicode="K" horiz-adv-x="536" 
d="M146 348l279 319h71l-280 -318l310 -349h-83zM88 0v667h57v-667h-57z" />
    <glyph glyph-name="L" unicode="L" horiz-adv-x="462" 
d="M88 0v667h59v-617h284v-50h-343z" />
    <glyph glyph-name="M" unicode="M" horiz-adv-x="762" 
d="M88 0v667h92l201 -603l201 603h92v-667h-57v615l-207 -615h-57l-208 615v-615h-57z" />
    <glyph glyph-name="N" unicode="N" horiz-adv-x="627" 
d="M88 0v667h63l336 -584v584h53v-667h-66l-332 581v-581h-54z" />
    <glyph glyph-name="O" unicode="O" horiz-adv-x="637" 
d="M319 -11c-154 0 -262 142 -262 344c0 203 108 345 262 345s261 -142 261 -345c0 -202 -107 -344 -261 -344zM319 627c-117 0 -200 -122 -200 -294c0 -171 83 -293 200 -293c116 0 199 122 199 293c0 172 -83 294 -199 294z" />
    <glyph glyph-name="P" unicode="P" horiz-adv-x="513" 
d="M88 0v667h95c100 0 142 -4 181 -18c72 -24 117 -92 117 -178c0 -78 -36 -140 -96 -167c-43 -19 -80 -24 -189 -24h-49v-280h-59zM144 617v-287h50c69 0 93 1 126 8c64 14 98 60 98 133c0 64 -28 112 -75 130c-29 10 -66 15 -116 16h-46h-37z" />
    <glyph glyph-name="Q" unicode="Q" horiz-adv-x="644" 
d="M580 334c0 -79 -16 -150 -47 -209l128 -136h-71l-88 89c-49 -59 -110 -89 -184 -89c-153 0 -261 142 -261 344c0 203 108 345 262 345c153 0 261 -142 261 -344zM319 627c-117 0 -200 -122 -200 -294c0 -171 83 -293 200 -293c116 0 199 122 199 293
c0 172 -83 294 -199 294z" />
    <glyph glyph-name="R" unicode="R" horiz-adv-x="552" 
d="M88 0v667h101c105 0 133 -3 178 -18c69 -23 111 -85 111 -165c0 -88 -48 -149 -143 -180l183 -304h-71l-179 296h-123v-296h-57zM145 617v-271h46c89 0 111 2 144 13c52 19 81 63 81 125c0 57 -25 100 -69 117c-34 13 -59 16 -154 16h-48z" />
    <glyph glyph-name="S" unicode="S" horiz-adv-x="541" 
d="M270 678c114 0 183 -65 189 -176h-56c-8 81 -56 125 -136 125c-75 0 -130 -48 -130 -111c0 -44 27 -77 89 -105l74 -35c93 -43 129 -68 153 -107c17 -27 26 -61 26 -95c0 -110 -86 -185 -211 -185c-130 0 -204 72 -211 206h56c5 -99 62 -155 158 -155
c86 0 148 54 148 130c0 35 -13 65 -38 88c-22 20 -40 30 -100 58c-99 46 -129 62 -154 85c-31 28 -48 68 -48 112c0 95 81 165 191 165z" />
    <glyph glyph-name="T" unicode="T" horiz-adv-x="450" 
d="M24 617v50h402v-50h-173v-617h-56v617h-173z" />
    <glyph glyph-name="U" unicode="U" horiz-adv-x="608" 
d="M78 270v397h57v-396v-52c0 -76 12 -113 44 -139c31 -26 76 -40 125 -40c50 0 98 15 125 40c33 30 44 64 44 139l1 52v396h56v-397l1 -48c0 -82 -11 -123 -43 -161c-40 -47 -104 -72 -184 -72c-107 0 -185 46 -213 124c-10 28 -13 57 -13 109v48z" />
    <glyph glyph-name="V" unicode="V" horiz-adv-x="545" 
d="M245 -6l-229 673h59l200 -600l196 600h59l-229 -673h-56z" />
    <glyph glyph-name="W" unicode="W" horiz-adv-x="746" 
d="M175 -6l-154 673h55l129 -584l144 584h49l143 -584l131 584h55l-156 -673h-58l-140 550l-139 -550h-59z" />
    <glyph glyph-name="X" unicode="X" horiz-adv-x="529" 
d="M233 349l-200 318h67l166 -273l166 273h66l-200 -318l210 -349h-65l-177 295l-178 -295h-65z" />
    <glyph glyph-name="Y" unicode="Y" horiz-adv-x="495" 
d="M221 286l-205 381h66l167 -327l164 327h67l-206 -381l2 -286h-57z" />
    <glyph glyph-name="Z" unicode="Z" horiz-adv-x="490" 
d="M52 617v50h403v-39l-355 -578h350v-50h-417v44l352 573h-333z" />
    <glyph glyph-name="bracketleft" unicode="[" horiz-adv-x="272" 
d="M97 -194v861h133v-45h-80v-772h80v-44h-133z" />
    <glyph glyph-name="backslash" unicode="\" horiz-adv-x="575" 
d="M128 667l381 -800h-62l-381 800h62z" />
    <glyph glyph-name="bracketright" unicode="]" horiz-adv-x="272" 
d="M175 667v-861h-133v44h80v772h-80v45h133z" />
    <glyph glyph-name="asciicircum" unicode="^" 
d="M249 627l-159 -251h-57l183 292h68l183 -292h-58z" />
    <glyph glyph-name="underscore" unicode="_" 
d="M0 -121v49h500v-49h-500z" />
    <glyph glyph-name="quoteleft" unicode="&#x2018;" horiz-adv-x="234" 
d="M62 525c0 48 23 97 71 153h63c-48 -46 -70 -79 -78 -118c4 1 7 1 10 1c25 0 47 -23 47 -50c0 -30 -24 -53 -55 -53c-34 0 -58 27 -58 67z" />
    <glyph glyph-name="a" unicode="a" horiz-adv-x="463" 
d="M232 439c-67 0 -103 -26 -113 -84h-54c9 85 68 132 168 132c75 0 131 -31 147 -81c5 -17 8 -47 8 -76v-26v-173v-38c0 -40 3 -65 13 -93h-52c-8 26 -9 34 -12 67c-29 -52 -76 -79 -140 -79c-90 0 -149 54 -149 136c0 103 77 152 289 184v25c0 77 -29 106 -105 106z
M337 213v54c-76 -15 -140 -34 -173 -51c-40 -21 -61 -52 -61 -90c0 -54 40 -90 98 -90c57 0 106 31 123 81c9 24 13 54 13 96z" />
    <glyph glyph-name="b" unicode="b" horiz-adv-x="495" 
d="M76 137v532h51v-267c34 58 78 85 138 85c109 0 181 -99 181 -248c0 -151 -74 -251 -187 -251c-59 0 -98 24 -132 80c0 -7 1 -10 1 -14c0 -18 -3 -36 -9 -54h-53c8 27 10 52 10 137zM391 239c0 123 -49 200 -128 200c-81 0 -137 -82 -137 -204c0 -120 54 -200 134 -200
s131 79 131 204z" />
    <glyph glyph-name="c" unicode="c" horiz-adv-x="467" 
d="M246 487c96 0 157 -61 167 -167h-52c-12 77 -53 119 -116 119c-85 0 -142 -81 -142 -203c0 -121 57 -201 144 -201c67 0 109 45 117 125h54c-11 -111 -71 -172 -169 -172c-122 0 -200 97 -200 246c0 152 78 253 197 253z" />
    <glyph glyph-name="d" unicode="d" horiz-adv-x="494" 
d="M368 669h51v-532c0 -87 2 -111 10 -137h-53c-6 19 -9 35 -9 54c0 4 0 7 1 14c-34 -56 -73 -80 -133 -80c-113 0 -186 96 -186 245c0 154 71 254 181 254c63 0 109 -29 138 -85v267zM369 236c0 124 -52 203 -133 203s-133 -79 -133 -203c0 -123 52 -201 133 -201
s133 78 133 201z" />
    <glyph glyph-name="e" unicode="e" horiz-adv-x="476" 
d="M427 249v-18h-324c3 -127 54 -196 144 -196c56 0 88 22 117 78l51 -9c-30 -77 -86 -116 -167 -116c-124 0 -199 92 -199 243c0 156 76 256 194 256c112 0 184 -94 184 -238zM105 274h266c-6 105 -54 165 -130 165c-75 0 -124 -60 -136 -165z" />
    <glyph glyph-name="f" unicode="f" horiz-adv-x="269" 
d="M139 513v-40h119v-43h-116v-430h-57v430h-68v43h68v31c0 75 3 93 18 120c19 34 57 54 101 54c20 0 39 -4 64 -12v-53c-18 11 -39 18 -60 18c-53 0 -69 -29 -69 -118z" />
    <glyph glyph-name="g" unicode="g" horiz-adv-x="468" 
d="M304 468l141 5v-41l-97 2c29 -25 46 -67 46 -115c0 -53 -20 -95 -56 -116c-23 -15 -32 -18 -99 -36c-72 -19 -99 -34 -99 -57c0 -21 12 -25 92 -33c106 -10 135 -17 167 -41c30 -22 47 -58 47 -98c0 -88 -80 -143 -208 -143c-124 0 -205 54 -205 136c0 58 30 94 101 119
c-35 13 -50 29 -50 54c0 33 23 54 85 77c-67 24 -99 68 -99 137c0 96 66 160 166 160c24 0 44 -3 68 -10zM340 320c0 67 -44 114 -107 114c-62 0 -109 -48 -109 -114c0 -64 44 -107 109 -107s107 42 107 107zM394 -66c0 58 -54 89 -158 89c-96 0 -153 -33 -153 -90
c0 -54 62 -90 155 -90c97 0 156 35 156 91z" />
    <glyph glyph-name="h" unicode="h" horiz-adv-x="485" 
d="M75 0v669h52v-252c36 49 76 70 136 70c65 0 118 -31 136 -80c11 -30 13 -50 13 -135v-272h-52v275c0 86 -3 106 -23 131c-18 22 -45 33 -79 33c-85 0 -131 -61 -131 -173v-266h-52z" />
    <glyph glyph-name="i" unicode="i" horiz-adv-x="207" 
d="M75 0v473h57v-473h-57zM59 630c0 24 18 43 42 44h2c26 0 45 -19 45 -44s-19 -44 -44 -44c-26 0 -45 19 -45 44z" />
    <glyph glyph-name="j" unicode="j" horiz-adv-x="245" 
d="M112 32v441h58v-441c0 -108 -7 -141 -34 -173c-26 -32 -69 -48 -131 -48c-8 0 -13 0 -28 1v47c8 -1 12 -1 18 -1c49 0 84 14 100 40c14 24 17 50 17 134zM96 630c0 24 18 43 42 44h2c25 0 44 -19 44 -44s-18 -44 -43 -44c-26 0 -45 19 -45 44z" />
    <glyph glyph-name="k" unicode="k" horiz-adv-x="463" 
d="M129 260l208 213h64l-204 -211l218 -262h-74zM75 0v669h52v-669h-52z" />
    <glyph glyph-name="l" unicode="l" horiz-adv-x="207" 
d="M75 0v669h57v-669h-57z" />
    <glyph glyph-name="m" unicode="m" horiz-adv-x="741" 
d="M75 396c-1 32 -4 50 -11 77h51c6 -19 8 -35 9 -66c27 54 70 80 134 80c68 0 107 -26 130 -84c27 55 75 84 143 84c55 0 98 -21 119 -57c16 -27 19 -47 19 -135v-295h-52v295c0 114 -20 144 -98 144c-80 0 -121 -52 -121 -155v-284h-53v284c0 125 -18 155 -95 155
c-81 0 -123 -54 -123 -158v-281h-52v316v24v56z" />
    <glyph glyph-name="n" unicode="n" horiz-adv-x="491" 
d="M75 352c0 73 -1 83 -11 121h50c8 -23 10 -33 10 -71c31 57 79 85 145 85c69 0 119 -30 137 -80c9 -24 12 -50 12 -88v-47v-272h-52v275v37c0 88 -31 128 -101 128c-86 0 -138 -64 -138 -168v-272h-52v315v37z" />
    <glyph glyph-name="o" unicode="o" horiz-adv-x="493" 
d="M247 -12c-118 0 -198 100 -198 249s80 250 198 250s197 -101 197 -250s-79 -249 -197 -249zM247 439c-86 0 -144 -81 -144 -202s58 -201 144 -201s143 80 143 201s-58 202 -143 202z" />
    <glyph glyph-name="p" unicode="p" horiz-adv-x="494" 
d="M128 -197h-53v533c0 85 -2 110 -10 137h54c6 -19 7 -29 8 -58l1 -16c32 61 74 88 136 88c108 0 181 -102 181 -253c0 -150 -68 -246 -177 -246c-61 0 -107 27 -140 81v-266zM126 237c0 -120 55 -202 138 -202c80 0 127 74 127 198c0 126 -50 207 -129 207
c-80 0 -136 -84 -136 -203z" />
    <glyph glyph-name="q" unicode="q" horiz-adv-x="494" 
d="M419 -197h-53v266c-33 -54 -77 -81 -135 -81c-110 0 -182 97 -182 243c0 152 75 256 185 256c63 0 101 -25 133 -87c0 40 1 50 9 73h53c-8 -26 -10 -51 -10 -137v-533zM103 231c0 -121 50 -196 129 -196c81 0 137 83 137 201c0 122 -54 204 -134 204
c-79 0 -132 -84 -132 -209z" />
    <glyph glyph-name="r" unicode="r" horiz-adv-x="310" 
d="M75 337c0 74 -1 91 -7 136h49c6 -23 8 -49 8 -72c0 -7 0 -17 -1 -30c33 81 69 116 119 116c20 0 43 -6 64 -17v-52c-32 14 -44 18 -61 18c-36 0 -72 -29 -95 -79c-16 -36 -23 -78 -23 -148v-209h-53v304v33z" />
    <glyph glyph-name="s" unicode="s" horiz-adv-x="423" 
d="M215 487c96 0 151 -50 155 -140h-51c-7 63 -40 92 -104 92c-59 0 -99 -31 -99 -79c0 -42 22 -59 109 -84c86 -26 114 -40 134 -69c13 -19 20 -44 20 -73c0 -89 -64 -146 -164 -146c-108 0 -169 56 -169 154h52c6 -71 46 -107 117 -107c66 0 109 37 109 93
c0 54 -12 63 -137 102c-91 28 -125 63 -125 128c0 76 63 129 153 129z" />
    <glyph glyph-name="t" unicode="t" horiz-adv-x="299" 
d="M154 610l-3 -137h119l-1 -43h-118l-5 -259l-1 -42v-11c0 -65 11 -82 55 -82c20 0 45 6 68 16l-1 -48c-26 -10 -49 -13 -76 -13c-72 0 -101 27 -101 95c0 14 1 30 2 50c0 14 1 27 1 38l6 256h-71v43h72l2 137h52z" />
    <glyph glyph-name="u" unicode="u" horiz-adv-x="478" 
d="M73 180v293h51v-295c0 -106 27 -142 103 -142c49 0 90 26 110 71c10 23 14 50 14 94v272h52v-329v-43c0 -63 1 -71 11 -101h-52c-8 24 -10 38 -11 67c-27 -55 -63 -79 -124 -79c-71 0 -129 38 -146 95c-7 26 -8 40 -8 97z" />
    <glyph glyph-name="v" unicode="v" horiz-adv-x="408" 
d="M178 -7l-168 480h55l139 -416l140 416h54l-168 -480h-52z" />
    <glyph glyph-name="w" unicode="w" horiz-adv-x="631" 
d="M152 -7l-136 480h55l106 -388l115 388h47l115 -388l106 388h56l-137 -480h-47l-116 402l-117 -402h-47z" />
    <glyph glyph-name="x" unicode="x" horiz-adv-x="421" 
d="M180 252l-147 221h60l118 -181l120 181h65l-153 -221l171 -252h-63l-140 209l-141 -209h-62z" />
    <glyph glyph-name="y" unicode="y" horiz-adv-x="417" 
d="M180 1l-164 472h56l136 -405l142 405h54l-154 -433l-22 -62c-28 -81 -53 -123 -88 -148c-26 -18 -61 -29 -97 -29h-17v47c48 0 72 7 92 28c21 21 33 44 56 109z" />
    <glyph glyph-name="z" unicode="z" horiz-adv-x="389" 
d="M41 430v43h330v-37l-288 -393h279v-43h-340v42l283 388h-264z" />
    <glyph glyph-name="braceleft" unicode="{" horiz-adv-x="272" 
d="M153 353c0 -65 -13 -91 -55 -117c42 -26 55 -52 55 -117v-170c0 -86 18 -107 92 -108v-41h-11c-98 0 -131 40 -131 161v158c0 60 -15 86 -57 99v36c42 13 57 39 57 99v158c0 122 32 161 133 161h9v-41c-74 -1 -92 -22 -92 -108v-170z" />
    <glyph glyph-name="bar" unicode="|" 
d="M224 -250v1000h52v-1000h-52z" />
    <glyph glyph-name="braceright" unicode="}" horiz-adv-x="272" 
d="M120 119c0 65 12 91 54 117c-42 26 -54 52 -54 117v170c0 86 -19 107 -93 108v41h9c101 0 133 -39 133 -160v-159c0 -60 15 -86 57 -99v-36c-42 -13 -57 -39 -57 -99v-158c0 -121 -33 -161 -131 -161h-11v41c74 1 93 23 93 108v170z" />
    <glyph glyph-name="asciitilde" unicode="~" horiz-adv-x="667" 
d="M223 669c-38 0 -65 -22 -96 -78l-33 20c39 76 77 107 132 107c28 0 59 -11 115 -38c58 -30 75 -36 101 -36c39 0 64 20 97 76l34 -20c-38 -72 -81 -105 -137 -105c-30 0 -49 7 -138 51c-34 16 -55 23 -75 23z" />
    <glyph glyph-name="exclamdown" unicode="&#xa1;" horiz-adv-x="248" 
d="M146 285l7 -479h-58l11 479h40zM176 421c0 -28 -24 -51 -52 -51c-29 0 -52 23 -52 51s23 51 52 51c28 0 52 -23 52 -51z" />
    <glyph glyph-name="cent" unicode="&#xa2;" horiz-adv-x="520" 
d="M384 417c-5 80 -37 117 -103 119v-405c63 4 100 46 108 126h54c-4 -101 -68 -170 -162 -174v-105h-33v107c-101 15 -163 107 -163 243c0 137 60 231 163 254v101h33v-100c96 -3 153 -64 156 -166h-53zM248 134v399c-67 -21 -109 -99 -109 -202c0 -71 22 -134 60 -172
c13 -13 24 -19 49 -25z" />
    <glyph glyph-name="sterling" unicode="&#xa3;" horiz-adv-x="520" 
d="M226 385l-4 -22h148v-49h-155l-2 -12c-17 -92 -22 -119 -36 -170c-12 -42 -17 -54 -33 -87c36 6 52 7 95 7h37l44 -1h8c75 0 96 18 99 80h52c0 -44 -12 -76 -37 -100c-29 -27 -48 -31 -141 -31h-230c19 35 26 52 37 88c16 55 36 145 47 212l3 14h-101v49h109l2 11
c14 89 30 171 41 209c19 62 61 95 122 95c76 0 109 -36 114 -125h-53c-5 57 -20 75 -62 75c-35 0 -57 -19 -69 -60c-10 -38 -19 -85 -35 -183z" />
    <glyph glyph-name="fraction" unicode="&#x2044;" horiz-adv-x="119" 
d="M-155 0l381 650h49l-383 -650h-47z" />
    <glyph glyph-name="yen" unicode="&#xa5;" horiz-adv-x="520" 
d="M495 667l-130 -250h101v-40h-122l-43 -82h165v-40h-173l1 -255h-58l1 255h-183v40h174l-45 82h-129v40h107l-136 250h66l172 -329l170 329h62z" />
    <glyph glyph-name="florin" unicode="&#x192;" horiz-adv-x="520" 
d="M346 533l-10 -61h99v-49h-108l-65 -371c-19 -102 -29 -135 -51 -161c-21 -23 -51 -36 -88 -36c-32 0 -60 8 -105 30l11 54c34 -23 60 -33 90 -33c53 0 63 18 88 155l63 363h-93v48h102l13 76c13 72 27 108 52 133c21 21 50 33 83 33c24 0 47 -5 75 -17l-10 -51
c-34 15 -50 20 -68 20c-42 0 -60 -30 -78 -133z" />
    <glyph glyph-name="section" unicode="&#xa7;" 
d="M253 658c100 0 162 -59 166 -159h-54c-7 78 -42 114 -113 114c-66 0 -111 -39 -111 -97c0 -42 18 -63 85 -100l48 -27c68 -39 96 -57 117 -77c20 -19 31 -47 31 -78c0 -53 -26 -90 -87 -124c49 -38 68 -72 68 -122c0 -95 -66 -154 -171 -154c-113 0 -169 53 -173 164h53
c8 -84 43 -119 119 -119c74 0 119 41 119 107c0 34 -13 58 -43 80c-18 13 -38 26 -95 60c-90 53 -107 66 -125 93c-12 18 -18 38 -18 59c0 50 28 85 93 118c-51 32 -74 68 -74 117c0 84 69 145 165 145zM230 356l-25 14c-56 -24 -83 -53 -83 -91c0 -27 16 -49 51 -72
c11 -7 26 -17 46 -28c33 -20 53 -31 60 -35c3 -2 8 -5 15 -8c46 19 75 55 75 95c0 38 -10 48 -94 98z" />
    <glyph glyph-name="currency" unicode="&#xa4;" horiz-adv-x="667" 
d="M98 87l-32 32l91 92c-36 46 -53 91 -53 143c0 53 16 94 53 143l-94 92l32 32l93 -92c49 38 91 54 145 54s98 -16 145 -53l93 91l31 -32l-92 -92c37 -47 53 -90 53 -143s-16 -97 -52 -143l92 -92l-31 -32l-93 92c-46 -36 -91 -53 -144 -53c-52 0 -95 16 -145 53zM511 354
c0 99 -79 179 -177 179c-99 0 -178 -80 -178 -179c0 -98 79 -178 177 -178s178 80 178 178z" />
    <glyph glyph-name="quotesingle" unicode="'" horiz-adv-x="250" 
d="M155 667l-8 -267h-44l-8 267h60z" />
    <glyph glyph-name="quotedblleft" unicode="&#x201c;" horiz-adv-x="384" 
d="M212 525c0 48 23 97 71 153h63c-48 -46 -70 -79 -78 -118c4 1 7 1 10 1c25 0 47 -23 47 -50c0 -30 -24 -53 -55 -53c-34 0 -58 27 -58 67zM62 525c0 48 23 97 71 153h63c-48 -46 -70 -79 -78 -118c4 1 7 1 10 1c25 0 47 -23 47 -50c0 -30 -24 -53 -55 -53
c-34 0 -58 27 -58 67z" />
    <glyph glyph-name="guillemotleft" unicode="&#xab;" horiz-adv-x="345" 
d="M203 233l72 -233h-34l-84 233l84 239h34zM93 233l73 -233h-34l-84 233l84 239h34z" />
    <glyph glyph-name="guilsinglleft" unicode="&#x2039;" horiz-adv-x="220" 
d="M87 233l72 -233h-38l-84 233l84 239h38z" />
    <glyph glyph-name="guilsinglright" unicode="&#x203a;" horiz-adv-x="220" 
d="M133 239l-72 233h38l84 -233l-84 -239h-38z" />
    <glyph glyph-name="fi" unicode="&#xfb01;" horiz-adv-x="476" 
d="M139 513v-40h119v-43h-116v-430h-57v430h-68v43h68v31c0 75 3 93 18 120c19 34 57 54 101 54c20 0 39 -4 64 -12v-53c-18 11 -39 18 -60 18c-53 0 -69 -29 -69 -118zM343 0v473h58v-473h-58zM328 630c0 24 18 43 41 44h3c25 0 44 -19 44 -44s-19 -44 -44 -44
s-44 19 -44 44z" />
    <glyph glyph-name="fl" unicode="&#xfb02;" horiz-adv-x="476" 
d="M139 513v-40h119v-43h-116v-430h-57v430h-68v43h68v31c0 75 3 93 18 120c19 34 57 54 101 54c20 0 39 -4 64 -12v-53c-18 11 -39 18 -60 18c-53 0 -69 -29 -69 -118zM343 0v669h58v-669h-58z" />
    <glyph glyph-name="endash" unicode="&#x2013;" horiz-adv-x="520" 
d="M54 316v40h412v-40h-412z" />
    <glyph glyph-name="dagger" unicode="&#x2020;" 
d="M226 472v178h52v-178h189v-46h-189v-559h-52v559h-193v46h193z" />
    <glyph glyph-name="daggerdbl" unicode="&#x2021;" 
d="M226 531v119h49v-119h192v-47h-192v-435h192v-47h-192v-135h-49v135h-193v47h193v435h-193v47h193z" />
    <glyph glyph-name="periodcentered" unicode="&#xb7;" horiz-adv-x="117" 
d="M0 341c0 32 26 58 58 58s59 -26 59 -58c0 -31 -27 -57 -59 -57s-58 26 -58 57z" />
    <glyph glyph-name="paragraph" unicode="&#xb6;" horiz-adv-x="554" 
d="M268 -100h-48v413h-17c-108 0 -184 72 -184 175c0 74 43 139 107 162c35 12 68 17 127 17h231v-44h-56v-723h-48v723h-112v-723z" />
    <glyph glyph-name="bullet" unicode="&#x2022;" horiz-adv-x="667" 
d="M196 340c0 77 62 140 138 140c75 0 137 -63 137 -140s-62 -140 -137 -140c-76 0 -138 63 -138 140z" />
    <glyph glyph-name="quotesinglbase" unicode="&#x201a;" horiz-adv-x="234" 
d="M172 33c0 -48 -22 -95 -71 -152h-63c48 45 70 79 78 117h-9c-26 0 -48 23 -48 50c0 29 24 53 55 53c35 0 58 -28 58 -68z" />
    <glyph glyph-name="quotedblbase" unicode="&#x201e;" horiz-adv-x="398" 
d="M172 33c0 -48 -22 -95 -71 -152h-63c48 45 70 79 78 117h-9c-26 0 -48 23 -48 50c0 29 24 53 55 53c35 0 58 -28 58 -68zM336 33c0 -48 -23 -95 -72 -152h-62c47 45 69 79 78 117h-10c-26 0 -48 23 -48 50c0 29 25 53 55 53c35 0 59 -28 59 -68z" />
    <glyph glyph-name="quotedblright" unicode="&#x201d;" horiz-adv-x="398" 
d="M172 610c0 -48 -22 -95 -71 -152h-63c48 45 70 78 78 117h-9c-26 0 -48 23 -48 50c0 29 24 53 55 53c35 0 58 -28 58 -68zM336 610c0 -48 -23 -95 -72 -152h-62c47 45 69 78 78 117h-10c-26 0 -48 23 -48 50c0 29 25 53 55 53c35 0 59 -28 59 -68z" />
    <glyph glyph-name="guillemotright" unicode="&#xbb;" horiz-adv-x="345" 
d="M142 239l-72 233h34l84 -233l-84 -239h-34zM252 239l-72 233h34l83 -233l-83 -239h-34z" />
    <glyph glyph-name="ellipsis" unicode="&#x2026;" horiz-adv-x="685" 
d="M77 40c0 28 23 51 51 51c29 0 52 -23 52 -51s-23 -51 -52 -51c-28 0 -51 23 -51 51zM291 40c0 28 23 51 51 51c29 0 52 -23 52 -51s-23 -51 -52 -51c-28 0 -51 23 -51 51zM505 40c0 28 23 51 52 51c28 0 52 -23 52 -51s-24 -51 -52 -51s-52 23 -52 51z" />
    <glyph glyph-name="perthousand" unicode="&#x2030;" horiz-adv-x="809" 
d="M43 0l393 667h48l-393 -667h-48zM505 154c0 -90 -53 -160 -122 -160c-69 1 -121 70 -121 160c0 91 52 160 121 160s122 -69 122 -160zM788 154c0 -90 -53 -160 -121 -160c-69 1 -122 70 -122 160c0 91 53 160 122 160c68 0 121 -69 121 -160zM264 512
c0 -90 -52 -160 -121 -160s-122 70 -122 160c0 91 53 160 122 160s121 -69 121 -160zM312 154c0 -66 30 -115 71 -115s72 49 72 115c0 67 -31 116 -72 116s-71 -49 -71 -116zM595 154c0 -66 31 -115 72 -115s71 49 71 115c0 67 -30 116 -71 116c-42 0 -72 -49 -72 -116z
M71 512c0 -66 31 -115 72 -115s71 49 71 115c0 67 -30 116 -71 116s-72 -50 -72 -116z" />
    <glyph glyph-name="questiondown" unicode="&#xbf;" horiz-adv-x="410" 
d="M282 421c0 -28 -23 -51 -52 -51c-28 0 -52 23 -52 51s24 51 52 51c29 0 52 -23 52 -51zM202 270v12h54v-12l1 -42v-7c0 -88 -5 -98 -71 -165c-52 -53 -68 -80 -68 -118c0 -51 34 -82 90 -82c65 0 98 31 106 100h50c-4 -98 -62 -153 -158 -153c-91 0 -148 53 -148 137
c0 52 18 84 87 149c50 49 57 65 57 124v57z" />
    <glyph glyph-name="grave" unicode="`" 
d="M207 687l95 -128h-47l-131 128h83z" />
    <glyph glyph-name="acute" unicode="&#xb4;" 
d="M271 559h-47l95 128h83z" />
    <glyph glyph-name="circumflex" unicode="&#x2c6;" 
d="M156 559h-54l111 136h74l111 -136h-54l-94 97z" />
    <glyph glyph-name="tilde" unicode="&#x2dc;" 
d="M187 628c-24 0 -38 -18 -46 -60l-37 8c11 68 39 103 82 103c23 0 41 -8 69 -29c34 -26 46 -33 60 -33c24 0 39 22 44 64l40 -8c-8 -67 -38 -106 -82 -106c-22 0 -43 9 -74 32s-43 29 -56 29z" />
    <glyph glyph-name="macron" unicode="&#xaf;" 
d="M111 602v47h267v-47h-267z" />
    <glyph glyph-name="breve" unicode="&#x2d8;" 
d="M251 556c-66 0 -113 52 -120 132h38c10 -50 41 -81 81 -81c41 0 70 30 81 81h38c-8 -83 -52 -132 -118 -132z" />
    <glyph glyph-name="dotaccent" unicode="&#x2d9;" 
d="M202 639c0 26 22 47 48 47s47 -21 47 -47c0 -27 -21 -48 -47 -48s-48 21 -48 48z" />
    <glyph glyph-name="dieresis" unicode="&#xa8;" 
d="M101 639c0 26 21 47 47 47c27 0 48 -21 48 -47c0 -27 -21 -48 -48 -48c-26 0 -47 21 -47 48zM304 639c0 26 21 47 48 47c26 0 47 -21 47 -47c0 -27 -21 -48 -47 -48c-27 0 -48 21 -48 48z" />
    <glyph glyph-name="ring" unicode="&#x2da;" 
d="M160 640c0 49 40 89 90 89s90 -40 90 -89c0 -50 -40 -90 -90 -90c-49 0 -90 40 -90 90zM300 640c0 27 -23 49 -50 49s-50 -22 -50 -49c0 -28 23 -50 50 -50s50 22 50 50z" />
    <glyph glyph-name="cedilla" unicode="&#xb8;" 
d="M218 -78l41 78h42l-31 -59c58 -7 84 -29 84 -70c0 -47 -37 -77 -94 -77c-26 0 -45 3 -70 13v35c27 -7 37 -9 51 -9c34 0 54 17 54 44c0 29 -21 42 -77 45z" />
    <glyph glyph-name="hungarumlaut" unicode="&#x2dd;" 
d="M226 558h-50l85 128h66zM326 558h-50l85 128h66z" />
    <glyph glyph-name="ogonek" unicode="&#x2db;" 
d="M192 -91c0 40 32 75 86 91h65c-65 -24 -95 -51 -95 -82c0 -28 23 -47 57 -47c13 0 25 2 38 7v-42c-22 -6 -37 -9 -55 -9c-56 0 -96 34 -96 82z" />
    <glyph glyph-name="caron" unicode="&#x2c7;" 
d="M344 695h54l-111 -136h-74l-111 136h54l94 -97z" />
    <glyph glyph-name="emdash" unicode="&#x2014;" horiz-adv-x="556" 
d="M0 230v43h556v-43h-556z" />
    <glyph glyph-name="AE" unicode="&#xc6;" horiz-adv-x="831" 
d="M24 0l376 667h382v-50h-290v-246h267v-50h-267v-271h290v-50h-349v191h-238l-106 -191h-65zM223 241h210v377z" />
    <glyph glyph-name="ordfeminine" unicode="&#xaa;" 
d="M250 640c-42 0 -63 -16 -69 -52h-40c6 57 43 87 110 87c71 0 101 -30 101 -99v-16v-106v-23c0 -26 3 -41 9 -61h-39c-5 16 -6 21 -7 35c-27 -32 -48 -43 -87 -43c-58 0 -97 35 -97 87c0 63 50 96 176 115l7 1v17c0 41 -20 58 -64 58zM118 283v34h256v-34h-256zM314 504
v30c-105 -20 -143 -42 -143 -83c0 -33 23 -54 59 -54c56 0 84 35 84 107z" />
    <glyph glyph-name="Oslash" unicode="&#xd8;" horiz-adv-x="637" 
d="M323 678c60 0 111 -20 159 -63l35 52h49l-55 -83c47 -64 70 -142 70 -240c0 -210 -109 -355 -266 -355c-60 0 -116 22 -161 63l-34 -52h-49l55 83c-47 66 -70 143 -70 239c0 211 109 356 267 356zM161 134l290 434c-36 39 -79 59 -128 59c-122 0 -204 -124 -204 -307
c0 -74 12 -130 42 -186zM476 532l-290 -433c35 -39 79 -59 128 -59c123 0 204 123 204 307c0 73 -13 132 -42 185z" />
    <glyph glyph-name="OE" unicode="&#x152;" horiz-adv-x="918" 
d="M325 678c82 0 142 -33 196 -108v97h344v-50h-288v-247h268v-50h-268v-270h292v-50h-348v98c-52 -75 -112 -109 -196 -109c-162 0 -268 135 -268 343c0 210 105 346 268 346zM519 333c0 180 -77 294 -199 294s-201 -116 -201 -295c0 -177 80 -292 203 -292
c121 0 197 113 197 293z" />
    <glyph glyph-name="ordmasculine" unicode="&#xba;" 
d="M379 518c0 -93 -53 -156 -129 -156s-129 63 -129 156s53 157 129 157c77 0 129 -63 129 -157zM122 283v34h256v-34h-256zM162 518c0 -73 35 -121 88 -121s88 49 88 121c0 73 -35 122 -88 122s-88 -49 -88 -122z" />
    <glyph glyph-name="ae" unicode="&#xe6;" horiz-adv-x="755" 
d="M706 250v-17h-321c1 -77 15 -123 49 -158c25 -26 60 -40 97 -40c53 0 91 26 117 78l51 -9c-22 -72 -85 -116 -167 -116c-77 0 -139 38 -170 104c-20 -34 -29 -46 -48 -63c-31 -26 -72 -41 -117 -41c-87 0 -148 53 -148 127c0 100 101 162 266 162l15 -1v33
c0 101 -23 130 -98 130c-63 0 -103 -29 -120 -88h-49c14 85 76 136 169 136c80 0 130 -32 143 -90c35 61 82 90 148 90c112 0 183 -93 183 -237zM387 276h259c-2 102 -49 163 -124 163c-72 0 -125 -63 -135 -163zM330 192v41h-10c-139 0 -217 -42 -217 -117
c0 -48 39 -81 96 -81c85 0 131 56 131 157z" />
    <glyph glyph-name="dotlessi" unicode="&#x131;" horiz-adv-x="207" 
d="M75 0v473h57v-473h-57z" />
    <glyph glyph-name="oslash" unicode="&#xf8;" horiz-adv-x="493" 
d="M39 0l53 68c-31 50 -43 97 -43 162c0 152 82 257 199 257c52 0 93 -18 130 -55l32 40h44l-53 -68c30 -47 43 -96 43 -162c0 -151 -81 -254 -200 -254c-50 0 -94 17 -128 51l-30 -39h-47zM103 227c0 -45 7 -79 24 -115l220 280c-27 32 -59 47 -98 47
c-87 0 -146 -85 -146 -212zM390 245c0 45 -7 80 -24 115l-218 -281c24 -29 57 -44 96 -44c87 0 146 84 146 210z" />
    <glyph glyph-name="oe" unicode="&#x153;" horiz-adv-x="812" 
d="M764 257c0 -9 -1 -16 -2 -32h-319c4 -123 54 -190 144 -190c55 0 96 28 117 79l51 -10c-31 -78 -85 -116 -168 -116c-80 0 -138 37 -175 112c-40 -77 -92 -112 -165 -112c-119 0 -198 99 -198 247c0 150 80 252 200 252c75 0 127 -37 164 -117c34 76 93 117 167 117
c108 0 184 -94 184 -230zM442 269h261c-1 105 -49 170 -126 170c-74 0 -123 -62 -135 -170zM384 237c0 122 -55 202 -139 202s-142 -81 -142 -202s57 -202 143 -202c83 0 138 80 138 202z" />
    <glyph glyph-name="germandbls" unicode="&#xdf;" horiz-adv-x="493" 
d="M124 0h-52v427c0 108 4 136 22 170c25 48 77 75 143 75c97 0 164 -63 164 -155c0 -73 -40 -119 -120 -140c107 -19 163 -83 163 -188c0 -114 -72 -196 -170 -196c-24 0 -43 4 -72 16v49c24 -12 47 -17 72 -17c68 0 116 61 116 147c0 108 -71 165 -206 167v44h21
c89 0 141 42 141 114c0 69 -43 112 -110 112c-77 0 -112 -45 -112 -144v-54v-427z" />
    <glyph glyph-name="Adieresis" unicode="&#xc4;" horiz-adv-x="554" 
d="M24 0l231 672h44l231 -672h-60l-65 189h-256l-66 -189h-59zM138 778c0 28 23 51 51 51s51 -23 51 -51s-23 -51 -51 -51s-51 23 -51 51zM314 778c0 28 22 51 51 51c28 0 51 -23 51 -51s-23 -51 -51 -51c-29 0 -51 23 -51 51zM277 591l-112 -352h223z" />
    <glyph glyph-name="Aring" unicode="&#xc5;" horiz-adv-x="554" 
d="M24 0l231 672h44l231 -672h-60l-65 189h-256l-66 -189h-59zM187 786c0 50 40 90 90 90c49 0 90 -40 90 -90c0 -49 -41 -90 -90 -90c-50 0 -90 41 -90 90zM277 591l-112 -352h223zM326 786c0 28 -22 50 -49 50c-28 0 -50 -22 -50 -50c0 -27 22 -49 50 -49
c27 0 49 22 49 49z" />
    <glyph glyph-name="Ccedilla" unicode="&#xc7;" horiz-adv-x="602" 
d="M553 219c-13 -140 -84 -218 -209 -229l-26 -60c62 -6 91 -31 91 -78c0 -50 -39 -82 -101 -82c-25 0 -43 3 -71 12v38c24 -7 35 -9 50 -9c36 0 59 18 59 47c0 31 -22 43 -82 45l37 87c-158 22 -244 143 -244 344c0 208 104 344 266 344c120 0 201 -68 218 -185h-56
c-22 91 -74 134 -162 134c-126 0 -204 -113 -204 -294s78 -293 204 -293c100 0 162 63 175 179h55z" />
    <glyph glyph-name="Eacute" unicode="&#xc9;" horiz-adv-x="490" 
d="M144 617v-247h273v-50h-273v-270h297v-50h-353v667h349v-50h-293zM285 714h-58l129 128h83z" />
    <glyph glyph-name="Ntilde" unicode="&#xd1;" horiz-adv-x="627" 
d="M88 0v667h63l336 -584v584h53v-667h-66l-332 581v-581h-54zM241 796c-31 0 -49 -20 -54 -60l-38 16c12 65 42 95 94 95c26 0 45 -8 72 -29c36 -28 45 -33 63 -33c31 0 48 21 52 64l38 -17c-8 -63 -39 -96 -92 -96c-24 0 -46 8 -69 25c-21 15 -35 25 -41 29
c-7 4 -16 6 -25 6z" />
    <glyph glyph-name="Odieresis" unicode="&#xd6;" horiz-adv-x="637" 
d="M319 -11c-154 0 -262 142 -262 344c0 203 108 345 262 345s261 -142 261 -345c0 -202 -107 -344 -261 -344zM180 778c0 28 22 51 51 51c28 0 51 -23 51 -51s-23 -51 -51 -51s-51 23 -51 51zM355 778c0 28 23 51 52 51c28 0 51 -23 51 -51s-23 -51 -51 -51
c-29 0 -52 23 -52 51zM319 627c-117 0 -200 -122 -200 -294c0 -171 83 -293 200 -293c116 0 199 122 199 293c0 172 -83 294 -199 294z" />
    <glyph glyph-name="Udieresis" unicode="&#xdc;" horiz-adv-x="608" 
d="M78 270v397h57v-396v-52c0 -76 12 -113 44 -139c31 -26 76 -40 125 -40c50 0 98 15 125 40c33 30 44 64 44 139l1 52v396h56v-397l1 -48c0 -82 -11 -123 -43 -161c-40 -47 -104 -72 -184 -72c-107 0 -185 46 -213 124c-10 28 -13 57 -13 109v48zM165 778
c0 28 23 51 51 51c29 0 51 -23 51 -51s-22 -51 -51 -51c-28 0 -51 23 -51 51zM341 778c0 28 23 51 51 51s51 -23 51 -51s-23 -51 -51 -51s-51 23 -51 51z" />
    <glyph glyph-name="aacute" unicode="&#xe1;" horiz-adv-x="463" 
d="M232 439c-67 0 -103 -26 -113 -84h-54c9 85 68 132 168 132c75 0 131 -31 147 -81c5 -17 8 -47 8 -76v-26v-173v-38c0 -40 3 -65 13 -93h-52c-8 26 -9 34 -12 67c-29 -52 -76 -79 -140 -79c-90 0 -149 54 -149 136c0 103 77 152 289 184v25c0 77 -29 106 -105 106z
M251 559h-47l96 128h83zM337 213v54c-76 -15 -140 -34 -173 -51c-40 -21 -61 -52 -61 -90c0 -54 40 -90 98 -90c57 0 106 31 123 81c9 24 13 54 13 96z" />
    <glyph glyph-name="agrave" unicode="&#xe0;" horiz-adv-x="463" 
d="M232 439c-67 0 -103 -26 -113 -84h-54c9 85 68 132 168 132c75 0 131 -31 147 -81c5 -17 8 -47 8 -76v-26v-173v-38c0 -40 3 -65 13 -93h-52c-8 26 -9 34 -12 67c-29 -52 -76 -79 -140 -79c-90 0 -149 54 -149 136c0 103 77 152 289 184v25c0 77 -29 106 -105 106z
M181 687l96 -128h-47l-132 128h83zM337 213v54c-76 -15 -140 -34 -173 -51c-40 -21 -61 -52 -61 -90c0 -54 40 -90 98 -90c57 0 106 31 123 81c9 24 13 54 13 96z" />
    <glyph glyph-name="acircumflex" unicode="&#xe2;" horiz-adv-x="463" 
d="M232 439c-67 0 -103 -26 -113 -84h-54c9 85 68 132 168 132c75 0 131 -31 147 -81c5 -17 8 -47 8 -76v-26v-173v-38c0 -40 3 -65 13 -93h-52c-8 26 -9 34 -12 67c-29 -52 -76 -79 -140 -79c-90 0 -149 54 -149 136c0 103 77 152 289 184v25c0 77 -29 106 -105 106z
M142 559h-54l111 136h74l110 -136h-53l-94 97zM337 213v54c-76 -15 -140 -34 -173 -51c-40 -21 -61 -52 -61 -90c0 -54 40 -90 98 -90c57 0 106 31 123 81c9 24 13 54 13 96z" />
    <glyph glyph-name="adieresis" unicode="&#xe4;" horiz-adv-x="463" 
d="M232 439c-67 0 -103 -26 -113 -84h-54c9 85 68 132 168 132c75 0 131 -31 147 -81c5 -17 8 -47 8 -76v-26v-173v-38c0 -40 3 -65 13 -93h-52c-8 26 -9 34 -12 67c-29 -52 -76 -79 -140 -79c-90 0 -149 54 -149 136c0 103 77 152 289 184v25c0 77 -29 106 -105 106z
M82 639c0 26 22 47 48 47s48 -21 48 -47c0 -27 -22 -48 -48 -48s-48 21 -48 48zM286 639c0 26 21 47 47 47c27 0 48 -21 48 -47c0 -27 -21 -48 -48 -48c-26 0 -47 21 -47 48zM337 213v54c-76 -15 -140 -34 -173 -51c-40 -21 -61 -52 -61 -90c0 -54 40 -90 98 -90
c57 0 106 31 123 81c9 24 13 54 13 96z" />
    <glyph glyph-name="atilde" unicode="&#xe3;" horiz-adv-x="463" 
d="M232 439c-67 0 -103 -26 -113 -84h-54c9 85 68 132 168 132c75 0 131 -31 147 -81c5 -17 8 -47 8 -76v-26v-173v-38c0 -40 3 -65 13 -93h-52c-8 26 -9 34 -12 67c-29 -52 -76 -79 -140 -79c-90 0 -149 54 -149 136c0 103 77 152 289 184v25c0 77 -29 106 -105 106z
M161 628c-23 0 -37 -18 -45 -60l-38 8c12 68 40 103 83 103c22 0 40 -8 68 -29c34 -26 47 -33 61 -33c24 0 39 22 44 64l39 -8c-7 -67 -38 -106 -81 -106c-22 0 -43 9 -74 32s-43 29 -57 29zM337 213v54c-76 -15 -140 -34 -173 -51c-40 -21 -61 -52 -61 -90
c0 -54 40 -90 98 -90c57 0 106 31 123 81c9 24 13 54 13 96z" />
    <glyph glyph-name="aring" unicode="&#xe5;" horiz-adv-x="463" 
d="M232 439c-67 0 -103 -26 -113 -84h-54c9 85 68 132 168 132c75 0 131 -31 147 -81c5 -17 8 -47 8 -76v-26v-173v-38c0 -40 3 -65 13 -93h-52c-8 26 -9 34 -12 67c-29 -52 -76 -79 -140 -79c-90 0 -149 54 -149 136c0 103 77 152 289 184v25c0 77 -29 106 -105 106z
M151 640c0 49 41 89 90 89c50 0 90 -40 90 -89c0 -50 -40 -90 -90 -90c-49 0 -90 40 -90 90zM337 213v54c-76 -15 -140 -34 -173 -51c-40 -21 -61 -52 -61 -90c0 -54 40 -90 98 -90c57 0 106 31 123 81c9 24 13 54 13 96zM291 640c0 27 -22 49 -50 49c-27 0 -49 -22 -49 -49
c0 -28 22 -50 49 -50c28 0 50 22 50 50z" />
    <glyph glyph-name="ccedilla" unicode="&#xe7;" horiz-adv-x="467" 
d="M418 160c-10 -102 -57 -159 -140 -171l-25 -48c58 -7 84 -29 84 -70c0 -46 -37 -77 -94 -77c-26 0 -44 4 -69 14v34c26 -7 36 -9 50 -9c34 0 54 17 54 45c0 29 -21 41 -77 45l34 64c-118 11 -186 102 -186 247c0 152 78 253 197 253c96 0 157 -61 167 -167h-52
c-12 77 -53 119 -116 119c-85 0 -142 -81 -142 -203c0 -123 57 -202 144 -202c67 0 109 45 117 126h54z" />
    <glyph glyph-name="eacute" unicode="&#xe9;" horiz-adv-x="476" 
d="M427 249v-18h-324c3 -127 54 -196 144 -196c56 0 88 22 117 78l51 -9c-30 -77 -86 -116 -167 -116c-124 0 -199 92 -199 243c0 156 76 256 194 256c112 0 184 -94 184 -238zM259 559h-47l95 128h83zM105 274h266c-6 105 -54 165 -130 165c-75 0 -124 -60 -136 -165z" />
    <glyph glyph-name="egrave" unicode="&#xe8;" horiz-adv-x="476" 
d="M427 249v-18h-324c3 -127 54 -196 144 -196c56 0 88 22 117 78l51 -9c-30 -77 -86 -116 -167 -116c-124 0 -199 92 -199 243c0 156 76 256 194 256c112 0 184 -94 184 -238zM195 687l95 -128h-47l-131 128h83zM105 274h266c-6 105 -54 165 -130 165
c-75 0 -124 -60 -136 -165z" />
    <glyph glyph-name="ecircumflex" unicode="&#xea;" horiz-adv-x="476" 
d="M427 249v-18h-324c3 -127 54 -196 144 -196c56 0 88 22 117 78l51 -9c-30 -77 -86 -116 -167 -116c-124 0 -199 92 -199 243c0 156 76 256 194 256c112 0 184 -94 184 -238zM144 559h-54l111 136h74l111 -136h-54l-94 97zM105 274h266c-6 105 -54 165 -130 165
c-75 0 -124 -60 -136 -165z" />
    <glyph glyph-name="edieresis" unicode="&#xeb;" horiz-adv-x="476" 
d="M427 249v-18h-324c3 -127 54 -196 144 -196c56 0 88 22 117 78l51 -9c-30 -77 -86 -116 -167 -116c-124 0 -199 92 -199 243c0 156 76 256 194 256c112 0 184 -94 184 -238zM89 639c0 26 21 47 47 47c27 0 48 -21 48 -47c0 -27 -21 -48 -48 -48c-26 0 -47 21 -47 48z
M292 639c0 26 21 47 48 47c26 0 47 -21 47 -47c0 -27 -21 -48 -47 -48c-27 0 -48 21 -48 48zM105 274h266c-6 105 -54 165 -130 165c-75 0 -124 -60 -136 -165z" />
    <glyph glyph-name="iacute" unicode="&#xed;" horiz-adv-x="207" 
d="M75 0v473h57v-473h-57zM108 559h-47l95 128h83z" />
    <glyph glyph-name="igrave" unicode="&#xec;" horiz-adv-x="207" 
d="M75 0v473h57v-473h-57zM44 687l96 -128h-47l-132 128h83z" />
    <glyph glyph-name="icircumflex" unicode="&#xee;" horiz-adv-x="207" 
d="M75 0v473h57v-473h-57zM9 559h-53l111 136h74l110 -136h-53l-94 97z" />
    <glyph glyph-name="idieresis" unicode="&#xef;" horiz-adv-x="207" 
d="M75 0v473h57v-473h-57zM-7 639c0 26 22 47 48 47s47 -21 47 -47c0 -27 -21 -48 -47 -47c-27 0 -48 21 -48 47zM119 639c0 26 22 47 48 47s47 -21 47 -47s-21 -48 -47 -48s-48 22 -48 48z" />
    <glyph glyph-name="ntilde" unicode="&#xf1;" horiz-adv-x="491" 
d="M75 352c0 73 -1 83 -11 121h50c8 -23 10 -33 10 -71c31 57 79 85 145 85c69 0 119 -30 137 -80c9 -24 12 -50 12 -88v-47v-272h-52v275v37c0 88 -31 128 -101 128c-86 0 -138 -64 -138 -168v-272h-52v315v37zM176 628c-23 0 -37 -18 -46 -60l-37 8c12 68 40 103 83 103
c22 0 40 -8 68 -29c34 -26 46 -33 61 -33c23 0 39 22 44 64l39 -8c-7 -67 -38 -106 -81 -106c-22 0 -44 9 -74 32c-31 23 -43 29 -57 29z" />
    <glyph glyph-name="oacute" unicode="&#xf3;" horiz-adv-x="493" 
d="M247 -12c-118 0 -198 100 -198 249s80 250 198 250s197 -101 197 -250s-79 -249 -197 -249zM267 559h-47l96 128h83zM247 439c-86 0 -144 -81 -144 -202s58 -201 144 -201s143 80 143 201s-58 202 -143 202z" />
    <glyph glyph-name="ograve" unicode="&#xf2;" horiz-adv-x="493" 
d="M247 -12c-118 0 -198 100 -198 249s80 250 198 250s197 -101 197 -250s-79 -249 -197 -249zM203 687l96 -128h-47l-132 128h83zM247 439c-86 0 -144 -81 -144 -202s58 -201 144 -201s143 80 143 201s-58 202 -143 202z" />
    <glyph glyph-name="ocircumflex" unicode="&#xf4;" horiz-adv-x="493" 
d="M247 -12c-118 0 -198 100 -198 249s80 250 198 250s197 -101 197 -250s-79 -249 -197 -249zM152 559h-53l111 136h74l110 -136h-53l-94 97zM247 439c-86 0 -144 -81 -144 -202s58 -201 144 -201s143 80 143 201s-58 202 -143 202z" />
    <glyph glyph-name="odieresis" unicode="&#xf6;" horiz-adv-x="493" 
d="M247 -12c-118 0 -198 100 -198 249s80 250 198 250s197 -101 197 -250s-79 -249 -197 -249zM97 639c0 26 22 47 48 47s47 -21 47 -47c0 -27 -21 -48 -47 -48s-48 21 -48 48zM301 639c0 26 21 47 47 47c27 0 48 -21 48 -47c0 -27 -21 -48 -48 -48c-26 0 -47 21 -47 48z
M247 439c-86 0 -144 -81 -144 -202s58 -201 144 -201s143 80 143 201s-58 202 -143 202z" />
    <glyph glyph-name="otilde" unicode="&#xf5;" horiz-adv-x="493" 
d="M247 -12c-118 0 -198 100 -198 249s80 250 198 250s197 -101 197 -250s-79 -249 -197 -249zM183 628c-23 0 -37 -18 -45 -60l-38 8c12 68 40 103 83 103c23 0 40 -8 69 -29c33 -26 46 -33 60 -33c24 0 39 22 44 64l39 -8c-7 -67 -37 -106 -81 -106c-22 0 -43 9 -74 32
s-43 29 -57 29zM247 439c-86 0 -144 -81 -144 -202s58 -201 144 -201s143 80 143 201s-58 202 -143 202z" />
    <glyph glyph-name="uacute" unicode="&#xfa;" horiz-adv-x="478" 
d="M73 180v293h51v-295c0 -106 27 -142 103 -142c49 0 90 26 110 71c10 23 14 50 14 94v272h52v-329v-43c0 -63 1 -71 11 -101h-52c-8 24 -10 38 -11 67c-27 -55 -63 -79 -124 -79c-71 0 -129 38 -146 95c-7 26 -8 40 -8 97zM247 559h-47l96 128h83z" />
    <glyph glyph-name="ugrave" unicode="&#xf9;" horiz-adv-x="478" 
d="M73 180v293h51v-295c0 -106 27 -142 103 -142c49 0 90 26 110 71c10 23 14 50 14 94v272h52v-329v-43c0 -63 1 -71 11 -101h-52c-8 24 -10 38 -11 67c-27 -55 -63 -79 -124 -79c-71 0 -129 38 -146 95c-7 26 -8 40 -8 97zM200 687l96 -128h-47l-132 128h83z" />
    <glyph glyph-name="ucircumflex" unicode="&#xfb;" horiz-adv-x="478" 
d="M73 180v293h51v-295c0 -106 27 -142 103 -142c49 0 90 26 110 71c10 23 14 50 14 94v272h52v-329v-43c0 -63 1 -71 11 -101h-52c-8 24 -10 38 -11 67c-27 -55 -63 -79 -124 -79c-71 0 -129 38 -146 95c-7 26 -8 40 -8 97zM145 559h-53l110 136h74l111 -136h-53l-95 97z
" />
    <glyph glyph-name="udieresis" unicode="&#xfc;" horiz-adv-x="478" 
d="M73 180v293h51v-295c0 -106 27 -142 103 -142c49 0 90 26 110 71c10 23 14 50 14 94v272h52v-329v-43c0 -63 1 -71 11 -101h-52c-8 24 -10 38 -11 67c-27 -55 -63 -79 -124 -79c-71 0 -129 38 -146 95c-7 26 -8 40 -8 97zM90 639c0 26 21 47 48 47c26 0 47 -21 47 -47
c0 -27 -21 -48 -47 -48c-27 0 -48 21 -48 48zM293 639c0 26 22 47 48 47s47 -21 47 -47c0 -27 -21 -48 -47 -48s-48 21 -48 48z" />
    <glyph glyph-name="degree" unicode="&#xb0;" 
d="M250 409c-76 0 -138 61 -138 135s62 134 138 134s138 -60 138 -134s-62 -135 -138 -135zM250 641c-55 0 -99 -43 -99 -97s44 -98 99 -98s99 44 99 98s-44 97 -99 97z" />
    <glyph glyph-name="registered" unicode="&#xae;" 
d="M74 557c0 103 85 187 188 187c104 0 188 -84 188 -187c0 -104 -84 -188 -188 -188c-103 0 -188 84 -188 188zM418 557c0 87 -70 157 -156 157s-156 -70 -156 -157c0 -88 70 -158 156 -158s156 70 156 158zM196 447v220h40c78 0 107 -17 107 -63c0 -28 -17 -48 -48 -59
l55 -98h-34l-51 93h-39v-93h-30zM226 641v-75h11h14c42 0 60 11 60 38c0 30 -15 37 -73 37h-12z" />
    <glyph glyph-name="copyright" unicode="&#xa9;" horiz-adv-x="802" 
d="M57 335c0 190 154 344 344 344s345 -154 345 -344s-155 -344 -345 -344s-344 154 -344 344zM705 334c0 171 -136 309 -304 309s-304 -138 -304 -309c0 -170 136 -309 304 -309s304 139 304 309zM413 545c79 0 130 -42 142 -116h-43c-14 54 -45 78 -100 78
c-76 0 -124 -65 -124 -168c0 -104 47 -169 125 -169c62 0 98 37 106 106h43c-10 -93 -62 -144 -147 -144c-106 0 -174 81 -174 206c0 126 68 207 172 207z" />
    <glyph glyph-name="trademark" unicode="&#x2122;" horiz-adv-x="763" 
d="M11 629v38h261v-38h-108v-362h-44v362h-109zM335 267v400h64l124 -345l124 345h65v-400h-44v340l-124 -340h-41l-125 340v-340h-43z" />
    <glyph glyph-name="notequal" unicode="&#x2260;" 
d="M33 432h243l54 115l39 -13l-48 -102h146v-46h-168l-48 -102h216v-46h-238l-57 -121l-38 12l51 109h-152v46h173l48 102h-221v46z" />
    <glyph glyph-name="infinity" unicode="&#x221e;" horiz-adv-x="667" 
d="M502 190c-66 0 -115 34 -168 115c-53 -79 -104 -114 -167 -114c-88 0 -148 61 -148 150c0 88 61 150 148 150c62 0 114 -36 166 -115c53 81 102 114 168 114c86 0 147 -62 147 -150s-60 -150 -146 -150zM496 446c-50 0 -86 -28 -136 -105c47 -76 86 -106 137 -106
c58 0 99 44 99 105s-42 106 -100 106zM170 235c51 0 86 27 137 105c-49 77 -86 106 -138 106c-57 0 -98 -44 -98 -105c0 -62 41 -106 99 -106z" />
    <glyph glyph-name="plusminus" unicode="&#xb1;" horiz-adv-x="520" 
d="M280 547v-192h186v-38h-186v-185h-40v185h-186v38h186v192h40zM54 38v41h412v-41h-412z" />
    <glyph glyph-name="lessequal" unicode="&#x2264;" 
d="M33 395l434 193v-51l-378 -164l378 -165v-50l-434 191v46zM33 128h434v-48h-434v48z" />
    <glyph glyph-name="greaterequal" unicode="&#x2265;" 
d="M467 349l-434 -191v50l378 165l-378 164v51l434 -193v-46zM467 80h-434v48h434v-48z" />
    <glyph glyph-name="mu" unicode="&#xb5;" 
d="M107 -165h-52v645h52v-279c0 -86 14 -123 60 -152c22 -14 50 -22 78 -22c90 0 148 73 148 185v268h52v-480h-52v96c-33 -76 -79 -110 -150 -110c-61 0 -101 24 -136 79v-230z" />
    <glyph glyph-name="partialdiff" unicode="&#x2202;" 
d="M244 571c-51 32 -85 45 -151 54l8 47c64 -9 86 -15 128 -34c79 -35 143 -96 184 -178c33 -65 51 -146 51 -223c0 -64 -11 -111 -38 -152c-39 -60 -105 -97 -175 -97c-118 0 -215 102 -215 225c0 124 93 223 210 223c69 0 112 -24 156 -84c-3 6 -4 10 -5 13
c-26 72 -35 89 -63 125c-26 33 -51 56 -90 81zM412 218c0 104 -65 177 -157 177c-93 0 -167 -82 -167 -184c0 -100 74 -182 163 -182c92 0 161 82 161 189z" />
    <glyph glyph-name="summation" unicode="&#x2211;" horiz-adv-x="667" 
d="M31 750h559v-220h-48l-4 171h-450l254 -430l-254 -473h460l2 170h49v-218h-568v55l250 466l-250 426v53z" />
    <glyph glyph-name="product" unicode="&#x220f;" horiz-adv-x="686" 
d="M35 702v48h616v-48h-78v-904h78v-48h-213v48h83v904h-356v-904h82v-48h-212v48h78v904h-78z" />
    <glyph glyph-name="pi" unicode="&#x3c0;" horiz-adv-x="549" 
d="M149 0h-51v432h-74v47h500v-47h-72v-432h-52v432h-251v-432z" />
    <glyph glyph-name="integral" unicode="&#x222b;" 
d="M163 -249c-22 0 -30 2 -50 10l13 46c19 -8 27 -10 41 -10c48 0 57 17 57 116v666c0 3 0 17 1 40c1 96 29 131 104 131c20 0 31 -2 58 -11l-13 -46c-19 8 -27 10 -41 10c-51 0 -57 -15 -57 -135v-647c0 -82 -3 -103 -15 -124c-17 -29 -54 -46 -98 -46z" />
    <glyph glyph-name="Omega" unicode="&#x3a9;" horiz-adv-x="667" 
d="M286 0h-258v47h195c-128 73 -195 180 -195 314c0 181 133 322 305 322c173 0 305 -140 305 -322c0 -134 -66 -241 -194 -314h194v-47h-257v43c68 39 103 68 137 113c45 58 68 126 68 200c0 157 -111 280 -251 280c-145 0 -254 -121 -254 -280c0 -133 67 -235 205 -313
v-43z" />
    <glyph glyph-name="logicalnot" unicode="&#xac;" 
d="M467 0h-52v219h-382v48h434v-267z" />
    <glyph glyph-name="radical" unicode="&#x221a;" horiz-adv-x="667" 
d="M420 828h247v-48h-203l-234 -780h-60l-91 309h-79v49h121l44 -144c7 -25 21 -80 30 -119l4 -17h3l6 22l18 69l28 102l51 169z" />
    <glyph glyph-name="approxequal" unicode="&#x2248;" 
d="M139 426c-37 0 -64 -22 -96 -78l-32 21c37 74 77 106 132 106c28 0 59 -11 114 -38c59 -30 76 -35 101 -35c40 0 65 19 98 75l33 -20c-37 -72 -80 -105 -136 -105c-19 0 -55 10 -78 21l-61 30c-33 16 -55 23 -75 23zM139 272c-37 0 -64 -22 -96 -78l-32 21
c36 74 77 106 132 106c28 0 59 -10 114 -38c58 -29 76 -35 102 -35c39 0 65 20 97 75l33 -20c-37 -72 -80 -104 -136 -104c-19 0 -55 9 -78 21l-61 29c-33 16 -55 23 -75 23z" />
    <glyph glyph-name="Delta" unicode="&#x394;" horiz-adv-x="667" 
d="M635 0h-603l273 667h55zM333 604l-227 -556h454z" />
    <glyph glyph-name="nbspace" unicode="&#xa0;" horiz-adv-x="333" 
d="M0 0z" />
    <glyph glyph-name="Agrave" unicode="&#xc0;" horiz-adv-x="554" 
d="M24 0l231 672h44l231 -672h-59l-66 189h-256l-66 -189h-59zM191 842l129 -128h-58l-154 128h83zM277 591l-112 -352h224z" />
    <glyph glyph-name="Atilde" unicode="&#xc3;" horiz-adv-x="554" 
d="M24 0l231 672h44l231 -672h-60l-65 189h-256l-66 -189h-59zM201 796c-26 0 -41 -18 -51 -60l-38 16c15 65 42 94 88 94c24 0 45 -8 77 -28c43 -29 50 -33 68 -33c26 0 43 23 48 64l38 -17c-7 -61 -39 -96 -87 -96c-26 0 -43 7 -87 36c-26 18 -40 24 -56 24zM277 591
l-112 -352h223z" />
    <glyph glyph-name="Otilde" unicode="&#xd5;" horiz-adv-x="637" 
d="M319 -11c-154 0 -262 142 -262 344c0 203 108 345 262 345s261 -142 261 -345c0 -202 -107 -344 -261 -344zM243 796c-26 0 -41 -18 -51 -60l-38 16c15 65 42 94 88 94c24 0 45 -8 76 -28c44 -29 50 -33 68 -33c27 0 44 23 49 64l38 -17c-8 -61 -39 -96 -87 -96
c-26 0 -44 7 -87 36c-26 18 -41 24 -56 24zM319 627c-117 0 -200 -122 -200 -294c0 -171 83 -293 200 -293c116 0 199 122 199 293c0 172 -83 294 -199 294z" />
    <glyph glyph-name="divide" unicode="&#xf7;" horiz-adv-x="520" 
d="M218 201c0 23 19 42 42 42s42 -19 42 -42s-19 -41 -42 -41s-42 18 -42 41zM218 465c0 23 19 42 42 42s42 -19 42 -42c0 -22 -19 -41 -42 -41s-42 19 -42 41zM54 316v40h412v-40h-412z" />
    <glyph glyph-name="lozenge" unicode="&#x25ca;" horiz-adv-x="667" 
d="M74 334l259 359l260 -359l-260 -360zM530 334l-197 270l-197 -270l197 -271z" />
    <glyph glyph-name="ydieresis" unicode="&#xff;" horiz-adv-x="417" 
d="M180 1l-164 472h56l136 -405l142 405h54l-154 -433l-22 -62c-28 -81 -53 -123 -88 -148c-26 -18 -61 -29 -97 -29h-17v47c48 0 72 7 92 28c21 21 33 44 56 109zM59 639c0 26 22 47 48 47s47 -21 47 -47c0 -27 -21 -48 -47 -48s-48 21 -48 48zM263 639c0 26 21 47 47 47
c27 0 48 -21 48 -47c0 -27 -21 -48 -48 -48c-26 0 -47 21 -47 48z" />
    <glyph glyph-name="Ydieresis" unicode="&#x178;" horiz-adv-x="495" 
d="M221 286l-205 381h66l167 -327l164 327h67l-206 -381l2 -286h-57zM109 778c0 28 22 51 51 51c28 0 51 -23 51 -51s-23 -51 -51 -51c-29 0 -51 23 -51 51zM284 778c0 28 23 51 51 51c29 0 52 -23 52 -51c-1 -28 -23 -51 -52 -51c-28 0 -51 23 -51 51z" />
    <glyph glyph-name="Acircumflex" unicode="&#xc2;" horiz-adv-x="554" 
d="M24 0l231 672h44l231 -672h-60l-65 189h-256l-66 -189h-59zM166 714h-53l127 128h74l127 -128h-53l-111 92zM277 591l-112 -352h223z" />
    <glyph glyph-name="Ecircumflex" unicode="&#xca;" horiz-adv-x="490" 
d="M144 617v-247h273v-50h-273v-270h297v-50h-353v667h349v-50h-293zM154 714h-54l127 128h75l127 -128h-54l-111 92z" />
    <glyph glyph-name="Aacute" unicode="&#xc1;" horiz-adv-x="554" 
d="M24 0l231 672h44l231 -672h-60l-65 189h-256l-66 -189h-59zM297 714h-58l129 128h83zM277 591l-112 -352h223z" />
    <glyph glyph-name="Edieresis" unicode="&#xcb;" horiz-adv-x="490" 
d="M144 617v-247h273v-50h-273v-270h297v-50h-353v667h349v-50h-293zM126 778c0 28 22 51 51 51c28 0 51 -23 51 -51s-23 -51 -51 -51c-29 0 -51 23 -51 51zM301 778c0 28 23 51 51 51c29 0 51 -23 51 -51s-23 -51 -51 -51s-51 23 -51 51z" />
    <glyph glyph-name="Egrave" unicode="&#xc8;" horiz-adv-x="490" 
d="M144 617v-247h273v-50h-273v-270h297v-50h-353v667h349v-50h-293zM179 842l128 -128h-58l-154 128h84z" />
    <glyph glyph-name="Iacute" unicode="&#xcd;" horiz-adv-x="232" 
d="M146 667v-667h-60v667h60zM137 714h-58l129 128h83z" />
    <glyph glyph-name="Icircumflex" unicode="&#xce;" horiz-adv-x="232" 
d="M146 667v-667h-60v667h60zM5 714h-53l127 128h74l127 -128h-53l-111 92z" />
    <glyph glyph-name="Idieresis" unicode="&#xcf;" horiz-adv-x="232" 
d="M146 667v-667h-60v667h60zM2 778c0 28 22 50 50 50s50 -22 50 -50s-22 -50 -50 -50c-27 0 -50 22 -50 50zM130 778c0 28 22 50 50 50s50 -22 50 -50s-22 -50 -50 -50s-50 22 -50 50z" />
    <glyph glyph-name="Igrave" unicode="&#xcc;" horiz-adv-x="232" 
d="M146 667v-667h-60v667h60zM13 842l129 -128h-58l-154 128h83z" />
    <glyph glyph-name="Oacute" unicode="&#xd3;" horiz-adv-x="637" 
d="M319 -11c-154 0 -262 142 -262 344c0 203 108 345 262 345s261 -142 261 -345c0 -202 -107 -344 -261 -344zM339 714h-58l129 128h83zM319 627c-117 0 -200 -122 -200 -294c0 -171 83 -293 200 -293c116 0 199 122 199 293c0 172 -83 294 -199 294z" />
    <glyph glyph-name="Ocircumflex" unicode="&#xd4;" horiz-adv-x="637" 
d="M319 -11c-154 0 -262 142 -262 344c0 203 108 345 262 345s261 -142 261 -345c0 -202 -107 -344 -261 -344zM208 714h-54l128 128h74l127 -128h-53l-111 92zM319 627c-117 0 -200 -122 -200 -294c0 -171 83 -293 200 -293c116 0 199 122 199 293c0 172 -83 294 -199 294z
" />
    <glyph glyph-name="apple" unicode="&#xf8ff;" horiz-adv-x="667" 
d="M332 518c2 97 57 161 148 173v-10c0 -87 -69 -163 -148 -163zM479 528c61 0 109 -24 144 -71c-58 -45 -80 -84 -80 -140c0 -66 37 -122 99 -148c-50 -124 -112 -196 -169 -196c-13 0 -27 3 -40 9l-41 17c-5 2 -16 4 -33 4c-20 0 -45 -3 -51 -5l-43 -18
c-14 -5 -27 -8 -38 -8c-36 0 -75 29 -111 82c-53 78 -84 172 -84 252c0 130 77 220 187 220c24 0 45 -5 77 -18c22 -8 38 -12 48 -12s25 3 43 10c55 20 62 22 92 22z" />
    <glyph glyph-name="Ograve" unicode="&#xd2;" horiz-adv-x="637" 
d="M319 -11c-154 0 -262 142 -262 344c0 203 108 345 262 345s261 -142 261 -345c0 -202 -107 -344 -261 -344zM233 842l129 -128h-59l-154 128h84zM319 627c-117 0 -200 -122 -200 -294c0 -171 83 -293 200 -293c116 0 199 122 199 293c0 172 -83 294 -199 294z" />
    <glyph glyph-name="Uacute" unicode="&#xda;" horiz-adv-x="608" 
d="M78 270v397h57v-396v-52c0 -76 12 -113 44 -139c31 -26 76 -40 125 -40c50 0 98 15 125 40c33 30 44 64 44 139l1 52v396h56v-397l1 -48c0 -82 -11 -123 -43 -161c-40 -47 -104 -72 -184 -72c-107 0 -185 46 -213 124c-10 28 -13 57 -13 109v48zM325 714h-58l129 128h83z
" />
    <glyph glyph-name="Ucircumflex" unicode="&#xdb;" horiz-adv-x="608" 
d="M78 270v397h57v-396v-52c0 -76 12 -113 44 -139c31 -26 76 -40 125 -40c50 0 98 15 125 40c33 30 44 64 44 139l1 52v396h56v-397l1 -48c0 -82 -11 -123 -43 -161c-40 -47 -104 -72 -184 -72c-107 0 -185 46 -213 124c-10 28 -13 57 -13 109v48zM193 714h-53l127 128h74
l128 -128h-54l-111 92z" />
    <glyph glyph-name="Ugrave" unicode="&#xd9;" horiz-adv-x="608" 
d="M78 270v397h57v-396v-52c0 -76 12 -113 44 -139c31 -26 76 -40 125 -40c50 0 98 15 125 40c33 30 44 64 44 139l1 52v396h56v-397l1 -48c0 -82 -11 -123 -43 -161c-40 -47 -104 -72 -184 -72c-107 0 -185 46 -213 124c-10 28 -13 57 -13 109v48zM218 842l129 -128h-58
l-154 128h83z" />
    </font>
</defs>
</svg>
