<?xml version="1.0" standalone="no"?>
<!DOCTYPE svg PUBLIC "-//W3C//DTD SVG 1.1//EN" "http://www.w3.org/Graphics/SVG/1.1/DTD/svg11.dtd" >
<svg xmlns="http://www.w3.org/2000/svg" xmlns:xlink="http://www.w3.org/1999/xlink" version="1.1">
<metadata>
Created by FontForge 20150318 at Thu May 21 17:51:13 2015
 By uniteet7
CorporateS-Demi
</metadata>
<defs>
<font id="CorporateS-Demi" horiz-adv-x="500" >
  <font-face 
    font-family="CorporateS-Demi"
    font-weight="500"
    font-stretch="normal"
    units-per-em="1000"
    panose-1="0 0 0 0 0 0 0 0 0 0"
    ascent="800"
    descent="-200"
    x-height="475"
    cap-height="667"
    bbox="-174 -261 934 895"
    underline-thickness="20"
    underline-position="-156"
    stemh="87"
    stemv="99"
    unicode-range="U+0020-FB02"
  />
<missing-glyph horiz-adv-x="280" 
 />
    <glyph glyph-name=".notdef" horiz-adv-x="280" 
 />
    <glyph glyph-name="space" unicode=" " horiz-adv-x="250" 
d="M0 0z" />
    <glyph glyph-name="exclam" unicode="!" horiz-adv-x="250" 
d="M83 205l-11 447h106l-13 -447h-82zM57 58c0 38 31 68 68 68c38 0 68 -30 68 -68c0 -37 -30 -67 -68 -67c-37 1 -68 30 -68 67z" />
    <glyph glyph-name="quotedbl" unicode="&#x22;" horiz-adv-x="431" 
d="M189 667l-18 -268h-64l-17 268h99zM341 667l-18 -268h-63l-18 268h99z" />
    <glyph glyph-name="numbersign" unicode="#" horiz-adv-x="600" 
d="M439 275h116l-11 -70h-116l-32 -205h-81l32 205h-134l-32 -205h-81l32 205h-114l11 70h114l21 130h-114l11 70h114l30 192h81l-30 -192h134l30 192h81l-30 -192h116l-11 -70h-116zM358 275l21 130h-134l-21 -130h134z" />
    <glyph glyph-name="dollar" unicode="$" horiz-adv-x="553" 
d="M392 495c-8 55 -35 83 -89 94v-199l8 -3c71 -24 101 -38 131 -59c46 -33 71 -83 71 -143c0 -110 -83 -188 -210 -196v-82h-52v82c-139 12 -209 85 -211 219h98c6 -82 37 -118 113 -132v225l-12 4c-74 26 -101 38 -128 59c-35 29 -55 75 -55 127c0 106 75 178 195 187v71
h52v-72c116 -12 183 -78 187 -182h-98zM251 407v183c-64 -12 -96 -42 -96 -90c0 -46 21 -67 96 -93zM303 283v-208c67 6 109 44 109 100c0 49 -28 79 -95 103z" />
    <glyph glyph-name="percent" unicode="%" horiz-adv-x="647" 
d="M87 0l389 667h84l-389 -667h-84zM351 156c0 90 59 160 134 160s134 -70 134 -160c0 -91 -59 -161 -134 -161s-134 70 -134 161zM28 511c0 90 59 161 135 161c75 0 134 -71 134 -161s-59 -161 -135 -161c-75 0 -134 71 -134 161zM551 156c0 59 -27 100 -66 100
s-66 -41 -66 -100c0 -60 27 -101 66 -101s66 41 66 101zM229 511c0 60 -28 101 -67 101s-66 -41 -66 -101c0 -59 28 -101 66 -101c39 0 67 42 67 101z" />
    <glyph glyph-name="ampersand" unicode="&#x26;" horiz-adv-x="586" 
d="M432 301c0 4 -1 11 -1 20h80v-30c0 -76 -14 -127 -49 -176l86 -115h-106l-36 53c-45 -44 -91 -62 -160 -62c-125 0 -212 76 -212 187c0 72 30 118 127 197l-12 16c-47 60 -60 89 -60 130c0 80 64 136 155 136c87 0 145 -53 145 -133c0 -40 -15 -79 -42 -110
c-20 -22 -27 -29 -61 -57l124 -168c17 31 22 57 22 112zM223 433l11 -14c50 40 71 72 71 108c0 32 -25 55 -61 55s-64 -24 -64 -56c0 -28 10 -48 43 -93zM355 117l-139 185c-66 -51 -89 -85 -89 -130c0 -59 50 -101 121 -101c43 0 79 16 107 46z" />
    <glyph glyph-name="quoteright" unicode="&#x2019;" horiz-adv-x="216" 
d="M170 597c0 -47 -23 -97 -70 -153h-58c34 39 54 78 59 116c-40 2 -63 23 -63 57c0 35 28 62 64 62c41 0 68 -33 68 -82z" />
    <glyph glyph-name="parenleft" unicode="(" horiz-adv-x="294" 
d="M117 545c20 54 33 77 70 127h74c-70 -105 -105 -251 -105 -432c0 -187 35 -333 105 -440h-74c-36 48 -49 70 -68 121c-36 94 -54 200 -54 315c0 113 18 216 52 309z" />
    <glyph glyph-name="parenright" unicode=")" horiz-adv-x="295" 
d="M178 -72c-21 -55 -33 -78 -70 -128h-75c70 105 106 251 106 433c0 186 -36 334 -106 439h75c36 -48 48 -70 68 -121c35 -94 53 -200 53 -315c0 -113 -17 -216 -51 -308z" />
    <glyph glyph-name="asterisk" unicode="*" 
d="M110 567l114 -37v120h52v-120l114 37l16 -49l-115 -37l71 -97l-41 -30l-71 97l-71 -97l-41 30l71 97l-115 37z" />
    <glyph glyph-name="plus" unicode="+" horiz-adv-x="553" 
d="M315 566v-195h188v-74h-188v-195h-77v195h-188v74h188v195h77z" />
    <glyph glyph-name="comma" unicode="," horiz-adv-x="245" 
d="M138 -121c-15 -24 -23 -36 -47 -68h-63c29 36 39 52 59 95c18 41 22 56 26 95c-43 2 -68 25 -68 62s31 67 70 67c45 0 74 -36 74 -93c0 -50 -17 -100 -51 -158z" />
    <glyph glyph-name="hyphen" unicode="-" horiz-adv-x="267" 
d="M0 215v73h267v-73h-267z" />
    <glyph glyph-name="period" unicode="." horiz-adv-x="253" 
d="M59 58c0 38 30 68 67 68c38 0 69 -30 69 -68c0 -37 -31 -67 -69 -67c-37 0 -67 30 -67 67z" />
    <glyph glyph-name="slash" unicode="/" horiz-adv-x="563" 
d="M119 -173h-82l408 840h81z" />
    <glyph glyph-name="zero" unicode="0" horiz-adv-x="553" 
d="M50 327c0 210 85 336 227 336c141 0 226 -126 226 -336c0 -211 -85 -336 -226 -336c-142 0 -227 125 -227 336zM359 531c-18 32 -47 48 -82 48c-36 0 -65 -17 -83 -48c-27 -49 -42 -120 -42 -204s15 -157 42 -205c18 -31 47 -48 83 -48c35 0 64 17 82 48
c28 49 43 121 43 205s-15 156 -43 204z" />
    <glyph glyph-name="one" unicode="1" horiz-adv-x="553" 
d="M284 486h-115v58c88 3 128 33 147 110h68v-654h-100v486z" />
    <glyph glyph-name="two" unicode="2" horiz-adv-x="553" 
d="M277 575c-64 0 -102 -39 -108 -110h-87c1 124 75 198 199 198c115 0 190 -66 190 -167c0 -49 -16 -88 -63 -152c-21 -29 -77 -100 -124 -157c-11 -13 -32 -38 -62 -74l-18 -22h274v-91h-403v80l15 19l64 77c46 56 108 132 141 175c18 22 33 43 46 64c19 29 28 55 28 78
c0 49 -38 82 -92 82z" />
    <glyph glyph-name="three" unicode="3" horiz-adv-x="553" 
d="M280 576c-60 0 -95 -32 -104 -96h-86c4 116 78 183 199 183c113 0 188 -67 188 -168c0 -69 -33 -116 -102 -145c79 -25 116 -75 116 -157c0 -122 -86 -203 -215 -203c-132 0 -214 75 -214 194v7h90c2 -72 45 -113 121 -113c73 0 118 42 118 113c0 55 -33 94 -85 104
c-20 4 -47 6 -74 6c-6 0 -11 0 -20 -1v84c12 -1 17 -1 25 -1c89 0 139 37 139 104c0 54 -38 89 -96 89z" />
    <glyph glyph-name="four" unicode="4" horiz-adv-x="553" 
d="M403 654v-426h115v-83h-113v-152h-101v152h-269v79l256 430h112zM130 228h178l1 309z" />
    <glyph glyph-name="five" unicode="5" horiz-adv-x="553" 
d="M79 308l56 342h314l-8 -89h-231l-26 -157c36 27 64 37 106 37c118 0 198 -86 198 -213c0 -137 -94 -237 -220 -237c-117 0 -195 70 -202 181h94c10 -61 46 -94 104 -94c71 0 119 58 119 145c0 81 -43 135 -109 135c-45 0 -78 -19 -108 -61z" />
    <glyph glyph-name="six" unicode="6" horiz-adv-x="553" 
d="M291 650l11 12h109l-11 -13c-54 -62 -115 -143 -148 -196c-3 -5 -7 -11 -12 -19c20 7 36 10 59 10c112 0 191 -91 191 -220c0 -138 -86 -233 -210 -233c-125 0 -217 97 -217 232c0 86 31 170 98 268c36 53 60 82 130 159zM165 221c0 -85 47 -145 114 -145
c65 0 109 58 109 144s-45 145 -111 145s-112 -59 -112 -144z" />
    <glyph glyph-name="seven" unicode="7" horiz-adv-x="553" 
d="M64 555v95h425v-78l-313 -572h-110l304 555h-306z" />
    <glyph glyph-name="eight" unicode="8" horiz-adv-x="553" 
d="M62 189c0 69 30 120 90 154c-51 29 -75 73 -75 134c0 106 86 186 200 186c113 0 199 -80 199 -186c0 -62 -24 -105 -75 -134c60 -34 90 -85 90 -155c0 -114 -90 -197 -214 -197c-125 0 -215 83 -215 198zM375 481c0 59 -40 100 -98 100s-99 -41 -99 -100s41 -100 99 -100
s98 41 98 100zM390 186c0 66 -47 114 -113 114s-113 -48 -113 -114s47 -114 113 -114s113 48 113 114z" />
    <glyph glyph-name="nine" unicode="9" horiz-adv-x="553" 
d="M262 0l-11 -12h-110l11 13c55 64 116 145 149 198c3 4 7 11 12 19c-19 -7 -35 -10 -59 -10c-110 0 -191 92 -191 218c0 139 90 237 217 237c126 0 210 -93 210 -233c0 -87 -31 -171 -98 -270c-36 -52 -65 -88 -130 -160zM388 432c0 88 -43 146 -110 146
c-66 0 -113 -61 -113 -147s45 -144 112 -144c66 0 111 58 111 145z" />
    <glyph glyph-name="colon" unicode=":" horiz-adv-x="253" 
d="M59 58c0 38 30 68 67 68c38 0 69 -30 69 -68c0 -37 -31 -67 -69 -67c-37 0 -67 30 -67 67zM59 407c0 37 30 67 67 67c38 0 69 -30 69 -67s-31 -67 -69 -67c-37 0 -67 30 -67 67z" />
    <glyph glyph-name="semicolon" unicode=";" horiz-adv-x="245" 
d="M47 407c0 37 31 67 68 67c38 0 68 -30 68 -67s-30 -67 -68 -67c-37 0 -68 30 -68 67zM138 -121c-15 -24 -23 -36 -47 -68h-63c29 36 39 52 59 95c18 41 22 56 26 95c-43 2 -68 25 -68 62s31 67 70 67c45 0 74 -36 74 -93c0 -50 -17 -100 -51 -158z" />
    <glyph glyph-name="less" unicode="&#x3c;" 
d="M33 380l434 211v-98l-329 -155l329 -155v-97l-434 211v83z" />
    <glyph glyph-name="equal" unicode="=" horiz-adv-x="553" 
d="M50 372v75h453v-75h-453zM50 221v75h453v-75h-453z" />
    <glyph glyph-name="greater" unicode="&#x3e;" 
d="M467 296l-433 -211v98l328 155l-328 156v97l433 -211v-84z" />
    <glyph glyph-name="question" unicode="?" horiz-adv-x="415" 
d="M134 58c0 38 31 68 68 68c38 0 68 -30 68 -67s-30 -68 -68 -68c-37 0 -68 30 -68 67zM248 213v-9h-92v11c0 77 1 94 9 116c9 22 23 41 57 77c48 51 60 70 60 101c0 40 -27 64 -70 64c-51 0 -78 -29 -82 -87h-81c3 71 18 109 57 139c32 24 70 36 118 36
c101 0 163 -55 163 -147c0 -53 -15 -80 -83 -151c-51 -54 -56 -65 -56 -128v-22z" />
    <glyph glyph-name="at" unicode="@" horiz-adv-x="733" 
d="M475 442l10 51h70l-39 -202c-4 -22 -6 -37 -6 -45c0 -27 12 -45 30 -45s39 14 55 37c27 38 43 91 43 144c0 140 -103 235 -254 235c-163 0 -282 -122 -282 -289c0 -122 67 -225 169 -260c38 -12 76 -18 123 -18c71 0 131 12 194 39l17 -63c-63 -26 -134 -39 -212 -39
c-216 0 -361 138 -361 343c0 199 150 349 351 349c185 0 318 -124 318 -296c0 -126 -78 -240 -164 -240c-39 0 -67 25 -76 67c-31 -46 -70 -68 -122 -68c-84 0 -144 67 -144 161c0 110 80 202 175 202c50 0 83 -21 105 -63zM355 209c58 0 99 58 99 138c0 54 -28 87 -73 87
c-59 0 -106 -58 -106 -131c0 -58 31 -94 80 -94z" />
    <glyph glyph-name="A" unicode="A" horiz-adv-x="585" 
d="M15 0l227 669h100l228 -669h-107l-49 156h-243l-50 -156h-106zM198 245h189l-95 300z" />
    <glyph glyph-name="B" unicode="B" horiz-adv-x="570" 
d="M83 0v667h152c84 0 123 -4 159 -17c65 -22 103 -78 103 -150c0 -75 -34 -120 -109 -143c98 -24 145 -78 145 -168c0 -81 -47 -149 -118 -172c-45 -14 -77 -17 -194 -17h-138zM184 582v-193h59c111 0 152 27 152 99s-37 94 -158 94h-53zM184 306v-221h62
c76 0 104 3 130 15c31 14 50 50 50 95c0 48 -23 85 -62 99c-28 10 -50 12 -116 12h-64z" />
    <glyph glyph-name="C" unicode="C" horiz-adv-x="600" 
d="M328 679c133 0 216 -78 228 -214h-91c-16 82 -63 124 -138 124c-108 0 -176 -98 -176 -257c0 -157 68 -255 178 -255c84 0 133 55 143 161h94c-10 -162 -92 -250 -234 -250c-176 0 -289 134 -289 344s113 347 285 347z" />
    <glyph glyph-name="D" unicode="D" horiz-adv-x="637" 
d="M83 0v667h135c113 0 170 -10 221 -36c95 -51 155 -165 155 -297c0 -133 -57 -244 -149 -296c-49 -26 -99 -37 -190 -38h-51h-121zM186 578v-489h54c88 0 122 7 160 32c56 38 87 115 87 213c0 100 -34 177 -95 215c-41 25 -67 29 -177 29h-29z" />
    <glyph glyph-name="E" unicode="E" horiz-adv-x="520" 
d="M186 578v-188h267v-89h-267v-212h300v-89h-403v667h394v-89h-291z" />
    <glyph glyph-name="F" unicode="F" horiz-adv-x="504" 
d="M186 578v-188h267v-89h-264v-301h-106v667h394v-89h-291z" />
    <glyph glyph-name="G" unicode="G" horiz-adv-x="632" 
d="M352 257v81h223v-276c-71 -49 -149 -74 -234 -74c-185 0 -298 131 -298 346c0 209 113 345 288 345c137 0 222 -78 234 -213h-91c-15 83 -62 123 -141 123c-114 0 -182 -95 -182 -256c0 -162 70 -255 190 -255c49 0 102 15 145 43v136h-134z" />
    <glyph glyph-name="H" unicode="H" horiz-adv-x="659" 
d="M186 667v-276h287v276h104v-667h-104v305h-287v-305h-103v667h103z" />
    <glyph glyph-name="I" unicode="I" horiz-adv-x="269" 
d="M186 667v-667h-104v667h104z" />
    <glyph glyph-name="J" unicode="J" horiz-adv-x="313" 
d="M129 134v533h104v-532c0 -112 -3 -135 -21 -168c-29 -54 -88 -80 -184 -80c-8 0 -15 1 -31 1v87h7c69 0 103 12 115 41c9 19 10 33 10 118z" />
    <glyph glyph-name="K" unicode="K" horiz-adv-x="593" 
d="M187 352l257 315h121l-260 -312l281 -355h-135zM83 0v667h103v-667h-103z" />
    <glyph glyph-name="L" unicode="L" horiz-adv-x="496" 
d="M83 0v667h106v-578h287v-89h-393z" />
    <glyph glyph-name="M" unicode="M" horiz-adv-x="791" 
d="M83 0v667h148l164 -555l166 555h147v-667h-95v553l-165 -553h-106l-164 553v-553h-95z" />
    <glyph glyph-name="N" unicode="N" horiz-adv-x="668" 
d="M83 0v667h110l294 -510v510h98v-667h-107l-297 509v-509h-98z" />
    <glyph glyph-name="O" unicode="O" horiz-adv-x="660" 
d="M330 -12c-172 0 -287 139 -287 345c0 207 115 346 287 346s288 -139 288 -346c-1 -207 -116 -345 -288 -345zM330 590c-110 0 -179 -99 -179 -257c0 -157 69 -256 179 -256s179 99 179 256c0 158 -69 257 -179 257z" />
    <glyph glyph-name="P" unicode="P" horiz-adv-x="547" 
d="M83 0v667h134c100 0 144 -5 187 -19c75 -26 121 -97 121 -187c0 -89 -45 -159 -118 -183c-41 -14 -82 -18 -177 -18h-42v-260h-105zM186 578v-230h44h33c63 0 102 10 125 32c20 20 31 47 31 81c0 48 -21 86 -56 101c-29 13 -58 16 -134 16h-43z" />
    <glyph glyph-name="Q" unicode="Q" horiz-adv-x="676" 
d="M618 335c0 -73 -12 -127 -39 -189l134 -150h-121l-66 73c-52 -53 -120 -81 -197 -81c-170 0 -286 140 -286 345c0 206 116 346 287 346s288 -140 288 -344zM330 590c-108 0 -179 -101 -179 -257s70 -256 179 -256s179 100 179 256s-70 257 -179 257z" />
    <glyph glyph-name="R" unicode="R" horiz-adv-x="577" 
d="M83 0v667h143c111 0 153 -6 198 -27c63 -30 101 -94 101 -171c0 -87 -43 -149 -127 -183l164 -286h-122l-151 269h-103v-269h-103zM186 578v-221h46c72 0 94 3 121 13c42 15 65 51 65 100c0 42 -19 76 -52 92c-29 14 -49 16 -139 16h-41z" />
    <glyph glyph-name="S" unicode="S" horiz-adv-x="557" 
d="M473 571c14 -28 17 -45 20 -89h-100c-5 68 -49 107 -118 107c-62 0 -109 -37 -109 -86c0 -44 13 -54 151 -112c75 -31 100 -44 126 -62c16 -12 30 -26 41 -42c18 -27 28 -63 28 -101c0 -120 -90 -198 -229 -198c-151 0 -235 79 -242 228h100c7 -91 57 -138 144 -138
c71 0 121 37 121 91c0 29 -14 53 -43 72c-23 16 -31 20 -110 54c-85 36 -125 60 -152 91c-25 30 -38 67 -38 108c0 108 89 185 215 185c90 0 163 -41 195 -108z" />
    <glyph glyph-name="T" unicode="T" horiz-adv-x="484" 
d="M16 578v89h453v-89h-175v-578h-104v578h-174z" />
    <glyph glyph-name="U" unicode="U" horiz-adv-x="651" 
d="M75 278v389h103v-388c0 -97 5 -123 30 -154c24 -30 68 -48 118 -48c80 0 133 41 143 111c3 24 4 37 4 91v388h103v-389c0 -100 -3 -127 -21 -166c-36 -78 -121 -124 -229 -124c-109 0 -194 46 -230 124c-18 39 -21 65 -21 166z" />
    <glyph glyph-name="V" unicode="V" horiz-adv-x="587" 
d="M238 -2l-228 669h110l174 -549l173 549h108l-230 -669h-107z" />
    <glyph glyph-name="W" unicode="W" horiz-adv-x="826" 
d="M178 -2l-165 669h97l128 -543l131 543h89l131 -543l129 543h95l-166 -669h-115l-120 475l-119 -475h-115z" />
    <glyph glyph-name="X" unicode="X" horiz-adv-x="565" 
d="M223 348l-194 319h118l136 -230l138 230h118l-196 -319l208 -348h-118l-150 253l-151 -253h-117z" />
    <glyph glyph-name="Y" unicode="Y" horiz-adv-x="539" 
d="M218 271l-213 396h117l149 -288l147 288h115l-212 -396v-271h-103v271z" />
    <glyph glyph-name="Z" unicode="Z" horiz-adv-x="497" 
d="M52 579v88h420v-72l-324 -506h316v-89h-438v80l321 499h-295z" />
    <glyph glyph-name="bracketleft" unicode="[" horiz-adv-x="294" 
d="M83 -194v861h176v-79h-90v-703h90v-79h-176z" />
    <glyph glyph-name="backslash" unicode="\" horiz-adv-x="563" 
d="M118 667l408 -840h-82l-407 840h81z" />
    <glyph glyph-name="bracketright" unicode="]" horiz-adv-x="294" 
d="M211 667v-861h-176v78h90v703h-90v80h176z" />
    <glyph glyph-name="asciicircum" unicode="^" 
d="M250 591l-130 -239h-104l169 318h130l169 -318h-104z" />
    <glyph glyph-name="underscore" unicode="_" 
d="M0 -146v89h500v-89h-500z" />
    <glyph glyph-name="quoteleft" unicode="&#x2018;" horiz-adv-x="209" 
d="M46 527c0 46 23 95 70 152h59c-35 -38 -55 -78 -59 -116c39 -2 62 -23 62 -57s-28 -62 -64 -62c-40 0 -68 33 -68 83z" />
    <glyph glyph-name="a" unicode="a" horiz-adv-x="495" 
d="M248 406c-54 0 -84 -21 -93 -65h-95c12 95 78 144 194 144c80 0 137 -27 157 -73c12 -28 15 -52 15 -112v-185c0 -64 3 -87 15 -115h-91c-6 24 -7 32 -8 59c-26 -47 -71 -70 -136 -70c-100 0 -162 52 -162 136c0 66 38 116 109 142c42 16 74 24 161 39l17 3v13
c0 60 -23 84 -83 84zM331 204v37c-82 -13 -123 -24 -150 -43c-24 -15 -37 -37 -37 -62c0 -41 34 -69 82 -69c73 0 105 42 105 137z" />
    <glyph glyph-name="b" unicode="b" horiz-adv-x="530" 
d="M71 129v542h98v-261c38 53 76 75 132 75c111 0 190 -102 190 -247c0 -147 -82 -249 -200 -249c-59 0 -100 24 -129 76c-1 -29 -2 -42 -9 -65h-88c4 24 6 49 6 90v39zM390 240c0 100 -41 162 -108 162c-69 0 -113 -65 -113 -166c0 -100 42 -163 110 -163s111 64 111 167z
" />
    <glyph glyph-name="c" unicode="c" horiz-adv-x="482" 
d="M255 488c107 0 172 -60 185 -170h-97c-10 63 -38 90 -89 90c-70 0 -115 -67 -115 -172c0 -106 43 -169 115 -169c56 0 85 30 93 99h96c-7 -111 -79 -179 -189 -179c-129 0 -215 100 -215 249c0 153 85 252 216 252z" />
    <glyph glyph-name="d" unicode="d" horiz-adv-x="529" 
d="M360 671h98v-525c0 -84 2 -114 9 -146h-93c-4 19 -6 31 -6 46c0 7 1 11 2 21c-33 -55 -72 -78 -135 -78c-118 0 -196 97 -196 244c0 148 80 252 193 252c58 0 92 -18 128 -70v256zM362 238c0 102 -42 164 -110 164c-70 0 -113 -64 -113 -167c0 -101 42 -162 110 -162
c70 0 113 63 113 165z" />
    <glyph glyph-name="e" unicode="e" horiz-adv-x="501" 
d="M462 237v-21h-324c4 -96 48 -148 125 -148c49 0 80 19 101 62l88 -6c-26 -88 -94 -137 -191 -137c-135 0 -222 96 -222 245c0 154 86 256 218 256c126 0 205 -97 205 -251zM141 289h221c-9 80 -45 120 -107 120c-61 0 -98 -39 -114 -120z" />
    <glyph glyph-name="f" unicode="f" horiz-adv-x="307" 
d="M180 496v-21h115v-78h-114v-397h-100v397h-65v78h65v30c0 66 6 96 23 124c23 35 64 55 114 55c30 0 59 -6 93 -19v-83l-10 4c-26 9 -46 13 -65 13c-43 0 -56 -24 -56 -103z" />
    <glyph glyph-name="g" unicode="g" horiz-adv-x="508" 
d="M337 471l151 4v-72l-97 1c20 -23 32 -59 32 -96c0 -82 -48 -127 -153 -142l-55 -8c-28 -4 -50 -19 -50 -34c0 -20 8 -22 100 -31c100 -10 135 -19 165 -41c29 -22 46 -60 46 -101c0 -96 -84 -153 -225 -153c-139 0 -227 53 -227 138c0 55 30 90 98 114
c-38 15 -52 31 -52 56c0 32 23 53 84 76c-60 28 -87 71 -87 136c0 101 73 165 187 165c29 0 49 -3 83 -12zM337 320c0 52 -36 88 -91 88c-54 0 -91 -36 -91 -89c0 -49 36 -83 90 -83c56 0 92 33 92 84zM382 -57c0 44 -47 68 -135 70h-8c-81 0 -129 -25 -129 -70
c0 -43 55 -71 142 -71c80 0 130 27 130 71z" />
    <glyph glyph-name="h" unicode="h" horiz-adv-x="530" 
d="M71 0v671h98v-250c35 43 80 64 136 64c68 0 126 -34 144 -85c11 -30 14 -54 14 -127v-273h-99v257c0 104 -23 141 -88 141c-70 0 -107 -51 -107 -147v-251h-98z" />
    <glyph glyph-name="i" unicode="i" horiz-adv-x="242" 
d="M71 0v475h100v-475h-100zM59 615c0 36 26 63 63 63c36 0 61 -25 61 -62s-25 -62 -62 -62s-62 25 -62 61z" />
    <glyph glyph-name="j" unicode="j" horiz-adv-x="262" 
d="M93 55v420h100v-419c0 -104 -5 -135 -31 -172c-34 -48 -86 -69 -172 -69h-24v85h15c90 0 111 24 112 127v28zM81 615c0 37 26 63 63 63s61 -25 61 -62s-25 -62 -62 -62s-62 25 -62 61z" />
    <glyph glyph-name="k" unicode="k" horiz-adv-x="511" 
d="M171 255l186 220h118l-187 -218l203 -257h-133zM71 0v671h98v-671h-98z" />
    <glyph glyph-name="l" unicode="l" horiz-adv-x="242" 
d="M71 0v671h100v-671h-100z" />
    <glyph glyph-name="m" unicode="m" horiz-adv-x="802" 
d="M71 369c0 56 -3 76 -12 106h95c8 -21 10 -35 10 -64c34 51 77 74 141 74c65 0 107 -25 134 -79c37 55 84 79 150 79c97 0 145 -51 145 -155v-47v-283h-98v282c0 90 -20 116 -84 116c-67 0 -101 -41 -101 -124v-274h-98v271v24c0 74 -23 103 -82 103
c-69 0 -102 -41 -102 -128v-270h-98v346v23z" />
    <glyph glyph-name="n" unicode="n" horiz-adv-x="527" 
d="M70 346c0 72 -1 87 -12 129h95c7 -21 9 -33 9 -65c34 50 82 75 143 75s113 -28 136 -72c16 -33 19 -51 19 -140v-273h-99v257c0 108 -20 141 -85 141c-71 0 -107 -49 -107 -145v-253h-99v308v38z" />
    <glyph glyph-name="o" unicode="o" horiz-adv-x="521" 
d="M260 -13c-129 0 -221 104 -221 250s92 251 221 251c130 0 222 -105 222 -251s-92 -250 -222 -250zM260 408c-72 0 -121 -69 -121 -171c0 -101 49 -170 121 -170c73 0 121 69 121 170c0 102 -49 171 -121 171z" />
    <glyph glyph-name="p" unicode="p" horiz-adv-x="529" 
d="M169 -197h-98v525c0 84 -2 115 -9 147h93c6 -18 9 -37 9 -61v-2c33 51 73 73 132 73c116 0 195 -99 195 -246s-79 -250 -191 -250c-56 0 -94 20 -131 69v-255zM167 236c0 -99 45 -163 116 -163c66 0 107 62 107 163c0 103 -41 166 -108 166c-70 0 -115 -65 -115 -166z
" />
    <glyph glyph-name="q" unicode="q" horiz-adv-x="529" 
d="M458 -197h-98v254c-36 -50 -70 -68 -124 -68c-117 0 -197 100 -197 245c0 150 79 251 198 251c59 0 101 -23 129 -72l-1 1c0 24 3 43 9 61h93c-7 -32 -9 -63 -9 -147v-525zM139 235c0 -100 43 -162 112 -162c68 0 111 63 111 163c0 101 -44 166 -112 166
s-111 -65 -111 -167z" />
    <glyph glyph-name="r" unicode="r" horiz-adv-x="353" 
d="M70 352c0 74 -1 86 -6 123h94c5 -24 7 -49 7 -73c0 -6 0 -16 -1 -28c36 76 76 111 130 111c14 0 27 -2 47 -9v-100c-28 16 -46 22 -69 22c-68 0 -103 -62 -103 -181v-217h-98v321z" />
    <glyph glyph-name="s" unicode="s" horiz-adv-x="463" 
d="M235 488c109 0 174 -55 179 -152h-94c-7 52 -34 76 -86 76c-46 0 -78 -25 -78 -60s15 -45 113 -73c82 -25 112 -40 132 -71c12 -19 19 -44 19 -71c0 -93 -69 -150 -184 -150c-125 0 -195 59 -195 164v2h93c5 -61 37 -89 100 -89c53 0 87 25 87 66c0 37 -10 43 -135 81
c-94 28 -128 64 -128 132c0 86 71 145 177 145z" />
    <glyph glyph-name="t" unicode="t" horiz-adv-x="337" 
d="M199 611l-3 -136h105l-1 -78h-105l-3 -210l-1 -27v-11c0 -57 11 -73 50 -73c22 0 45 6 71 16l-2 -83c-34 -13 -62 -19 -96 -19c-87 0 -124 41 -124 138v24l1 35l7 210h-73l1 78h74l4 136h95z" />
    <glyph glyph-name="u" unicode="u" horiz-adv-x="528" 
d="M68 192v283h98v-280c0 -85 25 -119 89 -119c69 0 104 46 104 138v261h98v-329v-37c0 -65 1 -73 12 -109h-94c-6 17 -9 33 -10 59c-32 -49 -71 -70 -130 -70c-73 0 -134 38 -154 95c-9 27 -13 59 -13 108z" />
    <glyph glyph-name="v" unicode="v" horiz-adv-x="469" 
d="M179 -4l-169 479h104l120 -368l121 368h102l-168 -479h-110z" />
    <glyph glyph-name="w" unicode="w" horiz-adv-x="708" 
d="M153 -4l-139 479h100l94 -355l105 355h81l104 -355l96 355h99l-140 -479h-102l-99 325l-98 -325h-101z" />
    <glyph glyph-name="x" unicode="x" horiz-adv-x="473" 
d="M177 253l-149 222h116l93 -150l94 150h118l-152 -222l173 -253h-119l-114 175l-115 -175h-119z" />
    <glyph glyph-name="y" unicode="y" horiz-adv-x="471" 
d="M183 -14l-167 489h105l116 -378l121 378h102l-159 -452l-20 -58c-41 -117 -105 -165 -222 -165c-7 0 -17 0 -31 1v86c6 0 12 -1 17 -1c81 0 108 20 138 100z" />
    <glyph glyph-name="z" unicode="z" horiz-adv-x="412" 
d="M45 393v82h342v-74l-249 -320h249v-81h-365v76l246 317h-223z" />
    <glyph glyph-name="braceleft" unicode="{" horiz-adv-x="294" 
d="M188 362c0 -70 -13 -96 -59 -126c46 -30 59 -56 59 -126v-141c0 -79 11 -92 82 -92h12v-76c-14 -1 -20 -1 -31 -1c-59 0 -93 10 -116 34c-26 26 -34 57 -34 123v156c0 57 -15 82 -56 91v64c41 9 56 34 56 91v156c0 67 9 100 34 124c26 24 57 33 116 33c12 0 17 0 31 -1
v-76h-13c-70 0 -81 -13 -81 -91v-142z" />
    <glyph glyph-name="bar" unicode="|" 
d="M201 -250v1000h98v-1000h-98z" />
    <glyph glyph-name="braceright" unicode="}" horiz-adv-x="294" 
d="M106 110c0 70 12 96 59 126c-47 30 -59 56 -59 127v141c0 78 -11 91 -82 91h-12v76c14 1 19 1 30 1c60 0 93 -10 117 -33c26 -27 34 -57 34 -124v-156c0 -57 15 -82 56 -91v-64c-41 -9 -56 -34 -56 -91v-156c0 -67 -9 -99 -34 -123c-26 -25 -57 -34 -116 -34
c-12 0 -17 0 -31 1v76h14c69 0 80 13 80 92v141z" />
    <glyph glyph-name="asciitilde" unicode="~" horiz-adv-x="667" 
d="M227 640c-32 0 -53 -18 -80 -68l-55 37l7 15c38 81 75 111 136 111c26 0 57 -9 108 -31c58 -24 70 -28 93 -28c35 0 54 14 82 60l57 -33c-29 -60 -47 -83 -81 -102c-22 -13 -47 -20 -71 -20c-18 0 -56 11 -90 25l-52 21c-20 8 -40 13 -54 13z" />
    <glyph glyph-name="exclamdown" unicode="&#xa1;" horiz-adv-x="250" 
d="M168 261l10 -447h-106l13 447h83zM193 407c0 -37 -30 -67 -68 -67c-37 0 -68 30 -68 67s31 67 68 67c38 0 68 -30 68 -67z" />
    <glyph glyph-name="cent" unicode="&#xa2;" horiz-adv-x="553" 
d="M378 424c-7 52 -25 74 -68 85v-332c44 12 66 40 73 95h96c-5 -98 -70 -166 -169 -176v-97h-52v98c-116 19 -184 109 -184 243c0 139 69 231 186 250v84h51v-83c97 -10 153 -66 166 -167h-99zM260 178v329c-56 -23 -85 -82 -85 -168s30 -143 85 -161z" />
    <glyph glyph-name="sterling" unicode="&#xa3;" horiz-adv-x="552" 
d="M255 396c-1 -5 -1 -6 -3 -13h152v-76h-166c-14 -101 -34 -167 -68 -226c43 11 60 14 103 14c15 0 27 -1 63 -3c16 0 28 -1 34 -1c45 0 60 20 60 81v1h83v-11c0 -56 -12 -99 -37 -129c-22 -26 -55 -37 -107 -37c-11 0 -22 0 -34 1l-63 5c-27 2 -50 3 -74 3
c-52 0 -97 -3 -159 -11h-1l1 1c33 45 53 97 76 204c11 49 14 65 20 108h-87v76h101l1 7l11 59c16 91 42 157 73 187c27 27 67 41 114 41c94 0 145 -48 152 -145l1 -12v-1h-89v1l-1 9c-4 41 -25 62 -61 62c-34 0 -56 -19 -68 -57c-10 -33 -19 -78 -27 -138z" />
    <glyph glyph-name="fraction" unicode="&#x2044;" horiz-adv-x="111" 
d="M-174 0l378 650h80l-377 -650h-81z" />
    <glyph glyph-name="yen" unicode="&#xa5;" horiz-adv-x="553" 
d="M535 667l-119 -230h91v-64h-124l-37 -73h161v-64h-178l1 -236h-104l1 236h-181v64h164l-38 73h-126v64h93l-120 230h115l144 -288l143 288h114z" />
    <glyph glyph-name="florin" unicode="&#x192;" horiz-adv-x="553" 
d="M379 514l-7 -40h108v-73h-121l-50 -284c-24 -138 -31 -163 -59 -200c-24 -33 -64 -53 -108 -53c-42 0 -83 13 -130 40l15 81c45 -26 75 -37 105 -37c45 0 56 22 81 169l50 284h-95v73h108l11 58c15 85 29 123 58 151c24 23 58 36 95 36c33 0 66 -9 101 -28l-14 -78
c-42 18 -59 23 -78 23c-38 0 -52 -25 -70 -122z" />
    <glyph glyph-name="section" unicode="&#xa7;" 
d="M251 663c111 0 174 -62 178 -177h-80c-9 68 -38 97 -96 97c-51 0 -85 -28 -85 -68c0 -37 9 -45 111 -99c85 -45 116 -65 138 -89c19 -20 29 -49 29 -81c0 -56 -27 -98 -87 -132c48 -35 67 -71 67 -123c0 -97 -69 -156 -182 -156c-126 0 -194 64 -194 183h83
c9 -73 41 -103 109 -103c58 0 93 29 93 77c0 37 -19 56 -102 100l-58 31c-37 19 -72 45 -93 67c-19 21 -31 51 -31 83c0 50 29 92 88 129c-46 37 -62 66 -62 112c0 86 74 149 174 149zM316 299c-34 21 -76 44 -109 61c-44 -24 -66 -52 -66 -82c0 -35 17 -53 89 -92l49 -27
l13 -7c44 26 65 53 65 85c0 26 -12 44 -41 62z" />
    <glyph glyph-name="currency" unicode="&#xa4;" horiz-adv-x="667" 
d="M93 75l-54 55l98 98c-32 42 -48 89 -48 140s14 92 48 140l-100 99l55 55l99 -99c48 32 91 46 143 46s94 -13 140 -45l99 97l54 -54l-98 -98c35 -49 49 -89 49 -141s-15 -93 -47 -139l98 -99l-54 -55l-99 99c-45 -33 -91 -48 -142 -48c-50 0 -91 14 -142 47zM486 368
c0 85 -68 153 -152 153c-85 0 -153 -69 -153 -153s69 -153 153 -153s152 68 152 153z" />
    <glyph glyph-name="quotesingle" unicode="'" horiz-adv-x="250" 
d="M174 667l-17 -268h-64l-17 268h98z" />
    <glyph glyph-name="quotedblleft" unicode="&#x201c;" horiz-adv-x="374" 
d="M211 526c0 47 22 96 70 153h58c-34 -39 -54 -78 -59 -116c40 -2 63 -23 63 -57s-29 -62 -64 -62c-41 0 -68 33 -68 82zM46 527c0 46 23 95 70 152h59c-35 -38 -55 -78 -59 -116c39 -2 62 -23 62 -57s-28 -62 -64 -62c-40 0 -68 33 -68 83z" />
    <glyph glyph-name="guillemotleft" unicode="&#xab;" horiz-adv-x="438" 
d="M291 233l84 -233h-80l-100 233l100 243h80zM130 233l84 -233h-80l-100 233l100 243h80z" />
    <glyph glyph-name="guilsinglleft" unicode="&#x2039;" horiz-adv-x="274" 
d="M130 233l84 -233h-84l-100 233l100 243h84z" />
    <glyph glyph-name="guilsinglright" unicode="&#x203a;" horiz-adv-x="274" 
d="M144 244l-84 232h84l100 -232l-100 -244h-84z" />
    <glyph glyph-name="fi" unicode="&#xfb01;" horiz-adv-x="545" 
d="M180 496v-21h115v-78h-114v-397h-100v397h-65v78h65v30c0 66 6 96 23 124c23 35 64 55 114 55c30 0 59 -6 93 -19v-83l-10 4c-26 9 -46 13 -65 13c-43 0 -56 -24 -56 -103zM374 0v475h100v-475h-100zM362 615c0 36 26 63 63 63c36 0 61 -25 61 -62s-25 -62 -62 -62
s-62 25 -62 61z" />
    <glyph glyph-name="fl" unicode="&#xfb02;" horiz-adv-x="545" 
d="M180 496v-21h115v-78h-114v-397h-100v397h-65v78h65v30c0 66 6 96 23 124c23 35 64 55 114 55c30 0 59 -6 93 -19v-83l-10 4c-26 9 -46 13 -65 13c-43 0 -56 -24 -56 -103zM374 0v671h100v-671h-100z" />
    <glyph glyph-name="endash" unicode="&#x2013;" horiz-adv-x="553" 
d="M50 297v75h453v-75h-453z" />
    <glyph glyph-name="dagger" unicode="&#x2020;" 
d="M204 469v181h94v-181h158v-78h-158v-523h-94v523h-159v78h159z" />
    <glyph glyph-name="daggerdbl" unicode="&#x2021;" 
d="M203 549v101h93v-101h160v-79h-160v-398h160v-79h-160v-125h-93v125h-159v79h159v398h-159v79h159z" />
    <glyph glyph-name="periodcentered" unicode="&#xb7;" horiz-adv-x="154" 
d="M0 342c0 42 34 76 77 76c42 0 77 -34 77 -76s-35 -76 -77 -76c-43 0 -77 34 -77 76z" />
    <glyph glyph-name="paragraph" unicode="&#xb6;" horiz-adv-x="621" 
d="M303 -95h-85v413h-13c-107 0 -181 70 -181 171c0 78 42 140 109 162c34 11 73 16 122 16h294v-77h-66v-685h-85v685h-95v-685z" />
    <glyph glyph-name="bullet" unicode="&#x2022;" horiz-adv-x="667" 
d="M196 340c0 77 62 140 138 140c75 0 137 -63 137 -140s-62 -140 -137 -140c-76 0 -138 63 -138 140z" />
    <glyph glyph-name="quotesinglbase" unicode="&#x201a;" horiz-adv-x="216" 
d="M170 37c0 -46 -23 -96 -70 -152h-58c34 39 54 77 59 116c-40 2 -63 23 -63 57s29 62 64 62c41 0 68 -34 68 -83z" />
    <glyph glyph-name="quotedblbase" unicode="&#x201e;" horiz-adv-x="378" 
d="M163 37c0 -46 -23 -95 -70 -152h-59c35 38 54 77 59 116c-39 2 -62 23 -62 57s28 62 64 62c40 0 68 -34 68 -83zM332 37c0 -46 -22 -95 -70 -152h-59c35 38 55 77 59 116c-39 2 -62 23 -62 57s28 62 64 62c40 0 68 -34 68 -83z" />
    <glyph glyph-name="quotedblright" unicode="&#x201d;" horiz-adv-x="378" 
d="M163 596c0 -46 -23 -96 -70 -152h-59c35 38 54 77 59 116c-39 2 -62 23 -62 57s28 62 64 62c41 0 68 -33 68 -83zM332 597c0 -47 -23 -97 -70 -153h-59c35 39 55 77 59 116c-39 2 -62 23 -62 57s28 62 64 62c40 0 68 -33 68 -82z" />
    <glyph glyph-name="guillemotright" unicode="&#xbb;" horiz-adv-x="438" 
d="M147 244l-83 232h79l100 -232l-100 -244h-79zM309 244l-84 232h79l100 -232l-100 -244h-79z" />
    <glyph glyph-name="ellipsis" unicode="&#x2026;" horiz-adv-x="704" 
d="M59 58c0 38 30 68 67 68c38 0 69 -30 69 -68c0 -37 -31 -67 -69 -67c-37 0 -67 30 -67 67zM284 58c0 38 30 68 68 68c37 0 68 -30 68 -68c0 -37 -31 -67 -68 -67c-38 1 -68 30 -68 67zM509 58c0 38 31 68 68 68c38 0 68 -30 68 -67s-30 -68 -68 -68c-37 0 -68 30 -68 67z
" />
    <glyph glyph-name="perthousand" unicode="&#x2030;" horiz-adv-x="962" 
d="M87 0l389 667h84l-389 -667h-84zM351 156c0 90 59 160 134 160s134 -70 134 -160c0 -91 -59 -161 -134 -161s-134 70 -134 161zM666 156c0 90 59 160 134 160s134 -70 134 -160c0 -91 -59 -161 -134 -161s-134 70 -134 161zM28 511c0 90 59 161 135 161
c75 0 134 -71 134 -161s-59 -161 -135 -161c-75 0 -134 71 -134 161zM551 156c0 59 -27 100 -66 100s-66 -41 -66 -100c0 -60 27 -101 66 -101s66 41 66 101zM866 156c0 59 -27 100 -66 100s-66 -41 -66 -100c0 -60 27 -101 66 -101s66 41 66 101zM229 511
c0 60 -28 101 -67 101s-66 -41 -66 -101c0 -59 28 -101 66 -101c39 0 67 42 67 101z" />
    <glyph glyph-name="questiondown" unicode="&#xbf;" horiz-adv-x="415" 
d="M293 407c0 -37 -30 -67 -68 -67c-37 0 -68 30 -68 67s31 67 68 67c38 0 68 -30 68 -67zM179 252v10h93v-11v-35c-1 -78 -9 -97 -66 -158c-50 -51 -60 -70 -60 -101c0 -40 26 -64 69 -64c51 0 78 28 83 87h80c-3 -72 -18 -109 -57 -139c-32 -25 -70 -36 -118 -36
c-100 0 -162 55 -162 146c0 54 15 82 82 152c52 54 57 64 57 130c0 6 0 13 -1 19z" />
    <glyph glyph-name="grave" unicode="`" 
d="M211 678l116 -150h-76l-167 150h127z" />
    <glyph glyph-name="acute" unicode="&#xb4;" 
d="M266 528h-77l116 150h128z" />
    <glyph glyph-name="circumflex" unicode="&#x2c6;" 
d="M179 535h-91l117 146h90l117 -146h-90l-72 89z" />
    <glyph glyph-name="tilde" unicode="&#x2dc;" 
d="M187 591c-20 0 -34 -15 -42 -46l-47 12c16 70 45 105 86 105c19 0 37 -5 68 -20c38 -18 48 -22 60 -22c20 0 35 15 47 49l44 -12c-12 -67 -45 -109 -86 -109c-16 0 -38 7 -71 21c-40 19 -48 22 -59 22z" />
    <glyph glyph-name="macron" unicode="&#xaf;" 
d="M107 574v64h282v-64h-282z" />
    <glyph glyph-name="breve" unicode="&#x2d8;" 
d="M253 532c-72 0 -124 55 -133 140h47c18 -49 46 -73 85 -73c37 0 62 22 81 73h47c-9 -87 -58 -140 -127 -140z" />
    <glyph glyph-name="dotaccent" unicode="&#x2d9;" 
d="M189 615c0 34 27 61 61 61s61 -27 61 -61c0 -33 -27 -61 -61 -61c-33 0 -61 28 -61 61z" />
    <glyph glyph-name="dieresis" unicode="&#xa8;" 
d="M87 615c0 34 27 61 61 61s61 -27 61 -61c0 -33 -27 -61 -61 -61s-61 28 -61 61zM291 615c0 34 27 61 61 61s61 -27 61 -61c0 -33 -28 -61 -61 -61c-34 0 -61 28 -61 61z" />
    <glyph glyph-name="ring" unicode="&#x2da;" 
d="M154 628c0 53 43 96 96 96s96 -43 96 -96s-43 -96 -96 -96s-96 44 -96 96zM299 628c0 27 -22 49 -49 49s-49 -22 -49 -49s22 -49 49 -49s49 22 49 49z" />
    <glyph glyph-name="cedilla" unicode="&#xb8;" 
d="M210 -77l29 77h58l-20 -50c58 -10 88 -39 88 -84c0 -54 -42 -93 -99 -93c-27 0 -49 6 -81 24v43l11 -5c23 -9 34 -12 48 -12c32 0 52 20 52 50c0 32 -24 51 -63 51c-6 0 -11 0 -23 -1z" />
    <glyph glyph-name="hungarumlaut" unicode="&#x2dd;" 
d="M214 528h-70l97 150h111zM361 528h-71l98 150h111z" />
    <glyph glyph-name="ogonek" unicode="&#x2db;" 
d="M181 -102c0 45 26 76 86 102h83c-65 -35 -97 -67 -97 -97c0 -26 20 -42 50 -42c15 0 30 3 45 9v-48c-21 -10 -40 -14 -64 -14c-61 0 -103 37 -103 90z" />
    <glyph glyph-name="caron" unicode="&#x2c7;" 
d="M321 681h91l-117 -146h-90l-117 146h90l72 -90z" />
    <glyph glyph-name="emdash" unicode="&#x2014;" horiz-adv-x="606" 
d="M0 215v73h606v-73h-606z" />
    <glyph glyph-name="AE" unicode="&#xc6;" horiz-adv-x="886" 
d="M16 0l390 667h440v-89h-285v-189h260v-89h-260v-211h291v-89h-396v156h-238l-90 -156h-112zM269 245h187v328z" />
    <glyph glyph-name="ordfeminine" unicode="&#xaa;" 
d="M249 623c-35 0 -52 -13 -57 -43h-63c5 61 49 95 124 95s110 -31 110 -98v-16v-111c0 -39 2 -52 10 -71h-60c-5 15 -6 19 -6 31c-22 -27 -46 -37 -85 -37c-63 0 -102 32 -102 83c0 53 39 87 119 104l50 11l11 2v8c0 28 -16 42 -51 42zM111 277v46h271v-46h-271zM300 504
v23c-87 -17 -114 -33 -114 -64c0 -24 19 -39 48 -39c46 0 66 24 66 80z" />
    <glyph glyph-name="Oslash" unicode="&#xd8;" horiz-adv-x="660" 
d="M326 679c72 0 129 -20 182 -64l40 52h71l-72 -93c45 -61 66 -137 66 -235c0 -208 -117 -351 -288 -351c-70 0 -136 23 -183 64l-41 -52h-69l72 93c-45 61 -66 136 -66 230c0 213 116 356 288 356zM173 178l269 366c-32 30 -70 46 -115 46c-110 0 -181 -104 -181 -264
c0 -59 9 -105 27 -148zM475 494l-271 -367c30 -32 73 -50 120 -50c111 0 180 103 180 268c0 60 -8 104 -29 149z" />
    <glyph glyph-name="OE" unicode="&#x152;" horiz-adv-x="947" 
d="M334 679c77 0 130 -23 177 -76v64h393v-89h-290l-1 -188h267v-89h-266v-212h299v-89h-402v64c-48 -54 -100 -76 -177 -76c-179 0 -291 133 -291 343c0 216 110 348 291 348zM511 333c0 158 -69 257 -179 257c-113 0 -181 -97 -181 -258c0 -159 68 -255 180 -255
s180 97 180 256z" />
    <glyph glyph-name="ordmasculine" unicode="&#xba;" 
d="M389 523c0 -88 -58 -151 -139 -151s-139 63 -139 152c0 88 58 151 139 151s139 -63 139 -152zM115 277v46h270v-46h-270zM177 523c0 -59 29 -99 73 -99s73 40 73 100c0 59 -30 99 -73 99c-44 0 -73 -40 -73 -100z" />
    <glyph glyph-name="ae" unicode="&#xe6;" horiz-adv-x="795" 
d="M757 230v-14h-331c1 -94 50 -149 132 -149c49 0 80 19 101 63l89 -6c-20 -84 -93 -137 -188 -137c-83 0 -149 36 -186 101c-31 -69 -85 -101 -166 -101c-99 0 -164 53 -164 134c0 105 102 166 282 169v26c0 67 -22 92 -78 92c-51 0 -82 -25 -94 -75h-95
c11 99 80 155 193 155c75 0 118 -21 149 -71c43 50 87 71 149 71c127 0 207 -99 207 -258zM431 289h220c-10 82 -44 121 -105 121s-101 -42 -115 -121zM326 198v19h-13c-107 0 -169 -33 -169 -89c0 -39 31 -64 77 -64c69 0 105 46 105 134z" />
    <glyph glyph-name="dotlessi" unicode="&#x131;" horiz-adv-x="242" 
d="M71 0v475h100v-475h-100z" />
    <glyph glyph-name="oslash" unicode="&#xf8;" horiz-adv-x="521" 
d="M12 0l71 78c-30 45 -44 96 -44 157c0 148 92 253 222 253c55 0 103 -18 143 -55l39 42h65l-71 -79c31 -46 45 -95 45 -157c0 -147 -92 -252 -222 -252c-55 0 -101 17 -144 54l-37 -41h-67zM139 235c0 -34 4 -53 14 -82l190 214c-22 27 -50 41 -82 41
c-72 0 -122 -71 -122 -173zM381 238c0 34 -4 61 -14 84l-189 -215c21 -26 50 -40 82 -40c72 0 121 70 121 171z" />
    <glyph glyph-name="oe" unicode="&#x153;" horiz-adv-x="842" 
d="M803 240v-26h-330c3 -94 50 -147 130 -147c50 0 86 22 103 63l88 -6c-26 -88 -93 -137 -190 -137c-76 0 -133 29 -177 90c-46 -64 -93 -90 -164 -90c-131 0 -224 104 -224 251s92 250 224 250c75 0 129 -31 165 -94c48 67 97 94 169 94c124 0 206 -99 206 -248zM477 285
h225c-8 81 -46 125 -109 125s-103 -43 -116 -125zM380 237c0 101 -49 171 -120 171s-121 -70 -121 -171s49 -170 121 -170c71 0 120 69 120 170z" />
    <glyph glyph-name="germandbls" unicode="&#xdf;" horiz-adv-x="526" 
d="M161 0h-99v421l1 47c0 89 19 139 66 172c34 24 76 36 125 36c110 0 186 -67 186 -163c0 -68 -34 -112 -103 -135c101 -24 151 -85 151 -188c0 -114 -74 -197 -175 -197c-28 0 -51 6 -77 19v87c24 -13 42 -19 66 -19c52 0 85 41 85 107c0 89 -62 143 -163 143h-10v85h19
c67 0 108 35 108 90s-35 90 -89 90c-74 0 -91 -31 -91 -165v-430z" />
    <glyph glyph-name="Adieresis" unicode="&#xc4;" horiz-adv-x="585" 
d="M15 0l227 669h100l228 -669h-107l-49 156h-243l-50 -156h-106zM135 790c0 37 30 66 66 66c37 0 66 -29 66 -66c0 -36 -29 -65 -66 -65c-36 0 -66 29 -66 65zM318 790c0 37 29 66 66 66c36 0 65 -29 65 -66c0 -36 -29 -65 -65 -65c-37 0 -66 29 -66 65zM198 245h189
l-95 300z" />
    <glyph glyph-name="Aring" unicode="&#xc5;" horiz-adv-x="585" 
d="M15 0l227 669h100l228 -669h-107l-49 156h-243l-50 -156h-106zM197 799c0 53 43 96 95 96c53 0 96 -43 96 -96s-43 -96 -96 -96c-52 0 -95 43 -95 96zM198 245h189l-95 300zM341 799c0 27 -21 49 -49 49c-27 0 -49 -22 -48 -49c0 -27 22 -49 48 -49c28 0 49 22 49 49z
" />
    <glyph glyph-name="Ccedilla" unicode="&#xc7;" horiz-adv-x="600" 
d="M566 238c-9 -154 -79 -236 -210 -249l-17 -47c65 -11 101 -45 101 -98c0 -60 -49 -105 -114 -105c-29 0 -52 7 -90 27v49c34 -15 48 -19 66 -19c35 0 58 23 58 57c0 36 -26 58 -69 58c-9 0 -14 -1 -28 -3l29 83c-160 25 -249 149 -249 342c0 209 113 346 286 346
c132 0 215 -78 227 -214h-91c-16 82 -63 124 -138 124c-108 0 -176 -99 -176 -257c0 -157 68 -255 177 -255c85 0 134 55 144 161h94z" />
    <glyph glyph-name="Eacute" unicode="&#xc9;" horiz-adv-x="520" 
d="M186 578v-188h267v-89h-267v-212h300v-89h-403v667h394v-89h-291zM311 715h-95l153 151h128z" />
    <glyph glyph-name="Ntilde" unicode="&#xd1;" horiz-adv-x="668" 
d="M83 0v667h110l294 -510v510h98v-667h-107l-297 509v-509h-98zM268 779c-24 0 -42 -16 -49 -45l-50 15c18 70 49 102 98 102c21 0 39 -5 72 -20c40 -18 52 -22 67 -22c23 0 38 14 52 48l46 -14c-12 -65 -49 -106 -95 -106c-20 0 -46 7 -75 19c-26 11 -41 18 -46 20
c-6 2 -13 3 -20 3z" />
    <glyph glyph-name="Odieresis" unicode="&#xd6;" horiz-adv-x="660" 
d="M330 -12c-172 0 -287 139 -287 345c0 207 115 346 287 346s288 -139 288 -346c-1 -207 -116 -345 -288 -345zM173 790c0 37 30 66 66 66s66 -29 66 -66c0 -36 -30 -65 -66 -65s-66 29 -66 65zM356 790c0 37 29 66 65 66c37 0 66 -29 66 -66c0 -36 -29 -65 -66 -65
c-36 0 -65 29 -65 65zM330 590c-110 0 -179 -99 -179 -257c0 -157 69 -256 179 -256s179 99 179 256c0 158 -69 257 -179 257z" />
    <glyph glyph-name="Udieresis" unicode="&#xdc;" horiz-adv-x="651" 
d="M75 278v389h103v-388c0 -97 5 -123 30 -154c24 -30 68 -48 118 -48c80 0 133 41 143 111c3 24 4 37 4 91v388h103v-389c0 -100 -3 -127 -21 -166c-36 -78 -121 -124 -229 -124c-109 0 -194 46 -230 124c-18 39 -21 65 -21 166zM169 790c0 37 29 66 65 66
c37 0 66 -29 66 -66c0 -36 -29 -65 -66 -65c-36 0 -65 29 -65 65zM351 790c0 37 29 66 66 66c36 0 66 -29 66 -66c0 -36 -30 -65 -66 -65s-66 29 -66 65z" />
    <glyph glyph-name="aacute" unicode="&#xe1;" horiz-adv-x="495" 
d="M248 406c-54 0 -84 -21 -93 -65h-95c12 95 78 144 194 144c80 0 137 -27 157 -73c12 -28 15 -52 15 -112v-185c0 -64 3 -87 15 -115h-91c-6 24 -7 32 -8 59c-26 -47 -71 -70 -136 -70c-100 0 -162 52 -162 136c0 66 38 116 109 142c42 16 74 24 161 39l17 3v13
c0 60 -23 84 -83 84zM284 528h-77l117 150h127zM331 204v37c-82 -13 -123 -24 -150 -43c-24 -15 -37 -37 -37 -62c0 -41 34 -69 82 -69c73 0 105 42 105 137z" />
    <glyph glyph-name="agrave" unicode="&#xe0;" horiz-adv-x="495" 
d="M248 406c-54 0 -84 -21 -93 -65h-95c12 95 78 144 194 144c80 0 137 -27 157 -73c12 -28 15 -52 15 -112v-185c0 -64 3 -87 15 -115h-91c-6 24 -7 32 -8 59c-26 -47 -71 -70 -136 -70c-100 0 -162 52 -162 136c0 66 38 116 109 142c42 16 74 24 161 39l17 3v13
c0 60 -23 84 -83 84zM206 678l116 -150h-77l-167 150h128zM331 204v37c-82 -13 -123 -24 -150 -43c-24 -15 -37 -37 -37 -62c0 -41 34 -69 82 -69c73 0 105 42 105 137z" />
    <glyph glyph-name="acircumflex" unicode="&#xe2;" horiz-adv-x="495" 
d="M248 406c-54 0 -84 -21 -93 -65h-95c12 95 78 144 194 144c80 0 137 -27 157 -73c12 -28 15 -52 15 -112v-185c0 -64 3 -87 15 -115h-91c-6 24 -7 32 -8 59c-26 -47 -71 -70 -136 -70c-100 0 -162 52 -162 136c0 66 38 116 109 142c42 16 74 24 161 39l17 3v13
c0 60 -23 84 -83 84zM185 535h-92l117 146h91l117 -146h-91l-71 89zM331 204v37c-82 -13 -123 -24 -150 -43c-24 -15 -37 -37 -37 -62c0 -41 34 -69 82 -69c73 0 105 42 105 137z" />
    <glyph glyph-name="adieresis" unicode="&#xe4;" horiz-adv-x="495" 
d="M248 406c-54 0 -84 -21 -93 -65h-95c12 95 78 144 194 144c80 0 137 -27 157 -73c12 -28 15 -52 15 -112v-185c0 -64 3 -87 15 -115h-91c-6 24 -7 32 -8 59c-26 -47 -71 -70 -136 -70c-100 0 -162 52 -162 136c0 66 38 116 109 142c42 16 74 24 161 39l17 3v13
c0 60 -23 84 -83 84zM84 615c0 34 27 61 61 61c33 0 60 -27 60 -61c0 -33 -27 -61 -60 -61c-34 0 -61 28 -61 61zM288 615c0 34 27 61 61 61c33 0 60 -27 60 -61c0 -33 -27 -61 -60 -61c-34 0 -61 28 -61 61zM331 204v37c-82 -13 -123 -24 -150 -43c-24 -15 -37 -37 -37 -62
c0 -41 34 -69 82 -69c73 0 105 42 105 137z" />
    <glyph glyph-name="atilde" unicode="&#xe3;" horiz-adv-x="495" 
d="M248 406c-54 0 -84 -21 -93 -65h-95c12 95 78 144 194 144c80 0 137 -27 157 -73c12 -28 15 -52 15 -112v-185c0 -64 3 -87 15 -115h-91c-6 24 -7 32 -8 59c-26 -47 -71 -70 -136 -70c-100 0 -162 52 -162 136c0 66 38 116 109 142c42 16 74 24 161 39l17 3v13
c0 60 -23 84 -83 84zM181 591c-20 0 -34 -15 -42 -46l-46 12c16 70 45 105 86 105c19 0 37 -5 68 -20c37 -18 47 -22 60 -22c20 0 35 15 47 49l43 -12c-11 -67 -44 -109 -86 -109c-16 0 -38 7 -70 21c-40 19 -49 22 -60 22zM331 204v37c-82 -13 -123 -24 -150 -43
c-24 -15 -37 -37 -37 -62c0 -41 34 -69 82 -69c73 0 105 42 105 137z" />
    <glyph glyph-name="aring" unicode="&#xe5;" horiz-adv-x="495" 
d="M248 406c-54 0 -84 -21 -93 -65h-95c12 95 78 144 194 144c80 0 137 -27 157 -73c12 -28 15 -52 15 -112v-185c0 -64 3 -87 15 -115h-91c-6 24 -7 32 -8 59c-26 -47 -71 -70 -136 -70c-100 0 -162 52 -162 136c0 66 38 116 109 142c42 16 74 24 161 39l17 3v13
c0 60 -23 84 -83 84zM165 628c0 53 43 96 96 96s96 -43 96 -96s-43 -96 -96 -96s-96 43 -96 96zM331 204v37c-82 -13 -123 -24 -150 -43c-24 -15 -37 -37 -37 -62c0 -41 34 -69 82 -69c73 0 105 42 105 137zM310 628c0 27 -22 49 -49 49s-49 -22 -49 -49s22 -49 49 -49
s49 22 49 49z" />
    <glyph glyph-name="ccedilla" unicode="&#xe7;" horiz-adv-x="486" 
d="M447 166c-7 -101 -68 -166 -164 -177l-16 -39c58 -10 89 -39 89 -85c0 -53 -43 -92 -100 -92c-27 0 -49 6 -81 24v43l11 -5c24 -9 34 -12 48 -12c32 0 52 20 52 50c0 32 -24 51 -62 51c-7 0 -12 0 -24 -1l25 67c-115 16 -186 110 -186 246c0 152 87 252 219 252
c106 0 173 -61 185 -170h-96c-9 59 -40 90 -91 90c-70 0 -117 -68 -117 -172s45 -169 117 -169c56 0 87 33 95 99h96z" />
    <glyph glyph-name="eacute" unicode="&#xe9;" horiz-adv-x="501" 
d="M462 237v-21h-324c4 -96 48 -148 125 -148c49 0 80 19 101 62l88 -6c-26 -88 -94 -137 -191 -137c-135 0 -222 96 -222 245c0 154 86 256 218 256c126 0 205 -97 205 -251zM288 528h-77l116 150h128zM141 289h221c-9 80 -45 120 -107 120c-61 0 -98 -39 -114 -120z" />
    <glyph glyph-name="egrave" unicode="&#xe8;" horiz-adv-x="501" 
d="M462 237v-21h-324c4 -96 48 -148 125 -148c49 0 80 19 101 62l88 -6c-26 -88 -94 -137 -191 -137c-135 0 -222 96 -222 245c0 154 86 256 218 256c126 0 205 -97 205 -251zM201 678l116 -150h-77l-167 150h128zM141 289h221c-9 80 -45 120 -107 120
c-61 0 -98 -39 -114 -120z" />
    <glyph glyph-name="ecircumflex" unicode="&#xea;" horiz-adv-x="501" 
d="M462 237v-21h-324c4 -96 48 -148 125 -148c49 0 80 19 101 62l88 -6c-26 -88 -94 -137 -191 -137c-135 0 -222 96 -222 245c0 154 86 256 218 256c126 0 205 -97 205 -251zM179 535h-91l117 146h90l118 -146h-91l-72 89zM141 289h221c-9 80 -45 120 -107 120
c-61 0 -98 -39 -114 -120z" />
    <glyph glyph-name="edieresis" unicode="&#xeb;" horiz-adv-x="501" 
d="M462 237v-21h-324c4 -96 48 -148 125 -148c49 0 80 19 101 62l88 -6c-26 -88 -94 -137 -191 -137c-135 0 -222 96 -222 245c0 154 86 256 218 256c126 0 205 -97 205 -251zM88 615c0 34 28 61 61 61c34 0 61 -27 61 -61c0 -33 -27 -61 -61 -61c-33 0 -61 28 -61 61z
M292 615c0 34 28 61 61 61c34 0 61 -27 61 -61c0 -33 -27 -61 -61 -61c-33 0 -61 28 -61 61zM141 289h221c-9 80 -45 120 -107 120c-61 0 -98 -39 -114 -120z" />
    <glyph glyph-name="iacute" unicode="&#xed;" horiz-adv-x="242" 
d="M68 0v475h100v-475h-100zM143 528h-77l116 150h128z" />
    <glyph glyph-name="igrave" unicode="&#xec;" horiz-adv-x="242" 
d="M71 0v475h100v-475h-100zM59 678l116 -150h-77l-167 150h128z" />
    <glyph glyph-name="icircumflex" unicode="&#xee;" horiz-adv-x="242" 
d="M71 0v475h100v-475h-100zM50 535h-91l117 146h90l118 -146h-91l-72 89z" />
    <glyph glyph-name="idieresis" unicode="&#xef;" horiz-adv-x="242" 
d="M71 0v475h100v-475h-100zM-13 615c0 33 26 59 59 59c32 0 58 -26 58 -59c0 -32 -26 -58 -58 -58c-33 0 -59 26 -59 58zM138 615c0 33 26 59 59 59c32 0 58 -26 58 -59c0 -32 -26 -58 -58 -58c-33 0 -59 26 -59 58z" />
    <glyph glyph-name="ntilde" unicode="&#xf1;" horiz-adv-x="527" 
d="M70 346c0 72 -1 87 -12 129h95c7 -21 9 -33 9 -65c34 50 82 75 143 75s113 -28 136 -72c16 -33 19 -51 19 -140v-273h-99v257c0 108 -20 141 -85 141c-71 0 -107 -49 -107 -145v-253h-99v308v38zM195 591c-20 0 -34 -15 -43 -46l-46 12c16 70 45 105 86 105
c19 0 37 -5 68 -20c38 -18 47 -22 60 -22c20 0 35 15 47 49l44 -12c-12 -67 -45 -109 -86 -109c-17 0 -38 7 -71 21c-40 19 -48 22 -59 22z" />
    <glyph glyph-name="oacute" unicode="&#xf3;" horiz-adv-x="521" 
d="M260 -13c-129 0 -221 104 -221 250s92 251 221 251c130 0 222 -105 222 -251s-92 -250 -222 -250zM291 528h-77l116 150h128zM260 408c-72 0 -121 -69 -121 -171c0 -101 49 -170 121 -170c73 0 121 69 121 170c0 102 -49 171 -121 171z" />
    <glyph glyph-name="ograve" unicode="&#xf2;" horiz-adv-x="521" 
d="M260 -13c-129 0 -221 104 -221 250s92 251 221 251c130 0 222 -105 222 -251s-92 -250 -222 -250zM207 678l116 -150h-76l-167 150h127zM260 408c-72 0 -121 -69 -121 -171c0 -101 49 -170 121 -170c73 0 121 69 121 170c0 102 -49 171 -121 171z" />
    <glyph glyph-name="ocircumflex" unicode="&#xf4;" horiz-adv-x="521" 
d="M260 -13c-129 0 -221 104 -221 250s92 251 221 251c130 0 222 -105 222 -251s-92 -250 -222 -250zM189 535h-91l117 146h91l117 -146h-91l-71 89zM260 408c-72 0 -121 -69 -121 -171c0 -101 49 -170 121 -170c73 0 121 69 121 170c0 102 -49 171 -121 171z" />
    <glyph glyph-name="odieresis" unicode="&#xf6;" horiz-adv-x="521" 
d="M260 -13c-129 0 -221 104 -221 250s92 251 221 251c130 0 222 -105 222 -251s-92 -250 -222 -250zM98 615c0 34 27 61 60 61c34 0 61 -27 61 -61c0 -33 -27 -61 -61 -61c-33 0 -60 28 -60 61zM302 615c0 34 27 61 60 61c34 0 61 -27 61 -61c0 -33 -27 -61 -61 -61
c-33 0 -60 28 -60 61zM260 408c-72 0 -121 -69 -121 -171c0 -101 49 -170 121 -170c73 0 121 69 121 170c0 102 -49 171 -121 171z" />
    <glyph glyph-name="otilde" unicode="&#xf5;" horiz-adv-x="521" 
d="M260 -13c-129 0 -221 104 -221 250s92 251 221 251c130 0 222 -105 222 -251s-92 -250 -222 -250zM197 591c-20 0 -34 -15 -42 -46l-47 12c17 70 46 105 87 105c19 0 36 -5 68 -20c37 -18 47 -22 60 -22c20 0 34 15 47 49l43 -12c-11 -67 -44 -109 -86 -109
c-16 0 -38 7 -70 21c-40 19 -49 22 -60 22zM260 408c-72 0 -121 -69 -121 -171c0 -101 49 -170 121 -170c73 0 121 69 121 170c0 102 -49 171 -121 171z" />
    <glyph glyph-name="uacute" unicode="&#xfa;" horiz-adv-x="528" 
d="M68 192v283h98v-280c0 -85 25 -119 89 -119c69 0 104 46 104 138v261h98v-329v-37c0 -65 1 -73 12 -109h-94c-6 17 -9 33 -10 59c-32 -49 -71 -70 -130 -70c-73 0 -134 38 -154 95c-9 27 -13 59 -13 108zM293 528h-77l116 150h128z" />
    <glyph glyph-name="ugrave" unicode="&#xf9;" horiz-adv-x="528" 
d="M68 192v283h98v-280c0 -85 25 -119 89 -119c69 0 104 46 104 138v261h98v-329v-37c0 -65 1 -73 12 -109h-94c-6 17 -9 33 -10 59c-32 -49 -71 -70 -130 -70c-73 0 -134 38 -154 95c-9 27 -13 59 -13 108zM230 678l116 -150h-77l-167 150h128z" />
    <glyph glyph-name="ucircumflex" unicode="&#xfb;" horiz-adv-x="528" 
d="M68 192v283h98v-280c0 -85 25 -119 89 -119c69 0 104 46 104 138v261h98v-329v-37c0 -65 1 -73 12 -109h-94c-6 17 -9 33 -10 59c-32 -49 -71 -70 -130 -70c-73 0 -134 38 -154 95c-9 27 -13 59 -13 108zM198 535h-92l117 146h91l117 -146h-91l-71 89z" />
    <glyph glyph-name="udieresis" unicode="&#xfc;" horiz-adv-x="528" 
d="M68 192v283h98v-280c0 -85 25 -119 89 -119c69 0 104 46 104 138v261h98v-329v-37c0 -65 1 -73 12 -109h-94c-6 17 -9 33 -10 59c-32 -49 -71 -70 -130 -70c-73 0 -134 38 -154 95c-9 27 -13 59 -13 108zM101 615c0 34 27 61 60 61c34 0 61 -27 61 -61
c0 -33 -27 -61 -61 -61c-33 0 -60 28 -60 61zM304 615c0 34 28 61 61 61c34 0 61 -27 61 -61c0 -33 -27 -61 -61 -61c-33 0 -61 28 -61 61z" />
    <glyph glyph-name="degree" unicode="&#xb0;" 
d="M250 390c-81 0 -148 65 -148 145c0 79 67 144 148 144c82 0 147 -64 147 -144s-66 -145 -147 -145zM250 619c-48 0 -86 -38 -86 -84c0 -47 39 -85 86 -85s86 38 86 84c0 47 -39 85 -86 85z" />
    <glyph glyph-name="registered" unicode="&#xae;" 
d="M65 557c0 107 88 195 195 195c108 0 195 -88 195 -195c0 -108 -87 -195 -195 -195c-107 0 -195 87 -195 195zM413 557c0 85 -68 154 -153 154c-84 0 -152 -69 -152 -154s69 -155 152 -155c84 0 153 70 153 155zM186 447v220h50c77 0 107 -19 107 -67
c0 -28 -15 -50 -43 -60l47 -93h-49l-41 86h-28v-86h-43zM229 631v-63h12h8c34 0 50 10 50 32c0 25 -14 31 -63 31h-7z" />
    <glyph glyph-name="copyright" unicode="&#xa9;" horiz-adv-x="768" 
d="M38 334c0 191 155 345 346 345s345 -154 345 -345s-154 -346 -345 -346s-346 155 -346 346zM675 334c0 164 -130 297 -291 297s-291 -133 -291 -297s130 -298 291 -298s291 134 291 298zM399 546c86 0 141 -49 147 -132h-62c-11 50 -38 73 -85 73
c-67 0 -110 -57 -110 -149c0 -91 43 -148 111 -148c53 0 83 33 87 95h64c-2 -95 -60 -153 -151 -153c-111 0 -183 81 -183 205c0 126 72 209 182 209z" />
    <glyph glyph-name="trademark" unicode="&#x2122;" horiz-adv-x="806" 
d="M7 609v58h288v-58h-109v-342h-70v342h-109zM343 267v400h97l114 -323l114 323h97v-400h-65v313l-111 -313h-71l-111 313v-313h-64z" />
    <glyph glyph-name="notequal" unicode="&#x2260;" 
d="M33 467h234l55 110l64 -30l-39 -80h120v-88h-160l-40 -81h200v-88h-240l-52 -106l-65 30l37 76h-114v88h154l40 81h-194v88z" />
    <glyph glyph-name="infinity" unicode="&#x221e;" horiz-adv-x="667" 
d="M493 182c-61 0 -113 31 -157 94c-49 -63 -101 -93 -161 -93c-93 0 -158 65 -158 158c0 91 66 157 157 157c59 0 113 -32 157 -93c46 62 99 93 161 93c93 0 157 -65 157 -158c0 -92 -65 -158 -156 -158zM479 414c-35 0 -61 -19 -97 -74c34 -53 62 -74 98 -74
c41 0 72 32 72 74s-31 74 -73 74zM187 266c35 0 61 20 97 74c-33 53 -62 74 -97 74c-42 0 -72 -32 -72 -74s31 -74 72 -74z" />
    <glyph glyph-name="plusminus" unicode="&#xb1;" horiz-adv-x="553" 
d="M315 581v-195h188v-74h-188v-170h-77v170h-188v74h188v195h77zM50 13v75h453v-75h-453z" />
    <glyph glyph-name="lessequal" unicode="&#x2264;" 
d="M33 435l434 201v-93l-329 -149l329 -148v-93l-434 198v84zM33 124h434v-92h-434v92z" />
    <glyph glyph-name="greaterequal" unicode="&#x2265;" 
d="M467 351l-434 -198v93l329 149l-329 148v93l434 -201v-84zM467 32h-434v92h434v-92z" />
    <glyph glyph-name="mu" unicode="&#xb5;" 
d="M135 -170h-98v650h98v-264c0 -76 12 -108 50 -134c19 -12 42 -19 64 -19c40 0 73 19 94 54c17 29 22 53 22 106v257h98v-480h-98v72c-29 -58 -64 -83 -118 -83c-49 0 -82 20 -112 67v-226z" />
    <glyph glyph-name="partialdiff" unicode="&#x2202;" 
d="M253 519c-53 34 -109 54 -178 62l13 87c119 -15 195 -46 262 -106c81 -74 126 -183 126 -306c0 -160 -90 -266 -226 -266c-124 0 -226 102 -226 227c0 121 91 217 207 217c58 0 95 -17 136 -61c-35 80 -60 111 -114 146zM251 361c-3 0 -5 -1 -8 -1
c-68 -5 -119 -68 -119 -148c0 -82 56 -148 126 -148s125 67 125 153c0 83 -52 144 -124 144z" />
    <glyph glyph-name="summation" unicode="&#x2211;" horiz-adv-x="667" 
d="M25 750h583v-239h-89l-10 147h-374l251 -390l-251 -426h384l5 145h93v-237h-592v102l246 416l-246 380v102z" />
    <glyph glyph-name="product" unicode="&#x220f;" horiz-adv-x="714" 
d="M38 658v92h638v-92h-81v-816h81v-92h-261v92h81v816h-278v-816h80v-92h-260v92h81v816h-81z" />
    <glyph glyph-name="pi" unicode="&#x3c0;" horiz-adv-x="619" 
d="M206 0h-98v391h-76v88h555v-88h-75v-391h-98v391h-208v-391z" />
    <glyph glyph-name="integral" unicode="&#x222b;" 
d="M148 -249c-30 0 -50 3 -74 10l20 87c24 -8 32 -9 49 -9c43 0 57 21 58 84v41v553v47c1 82 6 107 30 137c26 33 64 49 116 49c25 0 41 -2 79 -11l-20 -87c-24 8 -32 10 -49 10c-50 0 -57 -15 -58 -116v-58v-505c0 -124 -3 -146 -27 -179c-25 -35 -67 -53 -124 -53z" />
    <glyph glyph-name="Omega" unicode="&#x3a9;" horiz-adv-x="667" 
d="M294 0h-265v88h160c-60 37 -92 67 -119 113s-41 102 -41 164c0 180 131 318 305 318c173 0 304 -137 304 -318c0 -90 -27 -160 -82 -217c-24 -25 -39 -36 -77 -60h159v-88h-264v79c57 33 87 58 115 101c32 49 48 107 48 173c0 136 -89 241 -203 241
c-117 0 -205 -103 -205 -241c0 -123 54 -212 165 -274v-79z" />
    <glyph glyph-name="logicalnot" unicode="&#xac;" 
d="M467 0h-99v175h-335v92h434v-267z" />
    <glyph glyph-name="radical" unicode="&#x221a;" horiz-adv-x="667" 
d="M393 830h274v-92h-188l-193 -738h-127l-71 286h-88v92h169l28 -110c5 -18 12 -64 20 -129l2 -14h8c1 8 2 15 3 19c1 10 5 30 10 61c11 58 18 95 21 110c3 14 14 58 33 130z" />
    <glyph glyph-name="approxequal" unicode="&#x2248;" 
d="M143 415c-32 0 -53 -18 -79 -67l-56 36c40 91 80 126 144 126c25 0 55 -9 108 -31c62 -26 69 -28 92 -28c36 0 54 14 82 61l58 -34c-29 -59 -48 -82 -82 -102c-21 -13 -46 -20 -71 -20c-17 0 -56 11 -90 25l-51 21c-19 8 -40 13 -55 13zM144 232c-33 0 -54 -18 -80 -67
l-56 36c40 91 80 126 144 126c26 0 56 -9 108 -31c58 -24 70 -28 92 -28c36 0 54 14 82 61l58 -34c-29 -59 -48 -82 -82 -102c-21 -13 -46 -19 -70 -19c-19 0 -55 9 -91 24l-51 21c-20 9 -40 13 -54 13z" />
    <glyph glyph-name="Delta" unicode="&#x394;" horiz-adv-x="667" 
d="M644 0h-622l257 667h106zM332 547l-169 -455h338z" />
    <glyph glyph-name="nbspace" unicode="&#xa0;" horiz-adv-x="333" 
d="M0 0z" />
    <glyph glyph-name="Agrave" unicode="&#xc0;" horiz-adv-x="585" 
d="M15 0l227 669h100l228 -669h-107l-49 156h-243l-50 -156h-106zM207 866l153 -151h-95l-186 151h128zM198 245h189l-95 300z" />
    <glyph glyph-name="Atilde" unicode="&#xc3;" horiz-adv-x="585" 
d="M15 0l227 669h100l228 -669h-107l-49 156h-243l-50 -156h-106zM222 779c-24 0 -41 -16 -48 -45l-51 15c18 70 49 102 98 102c21 0 39 -5 72 -20c40 -18 52 -22 67 -22c23 0 38 14 52 48l46 -14c-12 -65 -48 -106 -95 -106c-19 0 -46 7 -74 19c-27 11 -42 18 -47 20
c-6 2 -13 3 -20 3zM198 245h189l-95 300z" />
    <glyph glyph-name="Otilde" unicode="&#xd5;" horiz-adv-x="660" 
d="M330 -12c-172 0 -287 139 -287 345c0 207 115 346 287 346s288 -139 288 -346c-1 -207 -116 -345 -288 -345zM260 779c-24 0 -42 -16 -49 -45l-50 15c18 70 49 102 98 102c21 0 39 -5 72 -20c40 -18 52 -22 67 -22c23 0 39 15 52 48l46 -14c-12 -65 -49 -106 -95 -106
c-20 0 -46 7 -75 19c-26 11 -41 18 -46 20c-6 2 -13 3 -20 3zM330 590c-110 0 -179 -99 -179 -257c0 -157 69 -256 179 -256s179 99 179 256c0 158 -69 257 -179 257z" />
    <glyph glyph-name="divide" unicode="&#xf7;" horiz-adv-x="553" 
d="M217 183c0 32 27 59 60 59s59 -26 59 -59s-27 -59 -59 -59c-33 0 -60 26 -60 59zM217 484c0 32 27 58 60 58s59 -26 59 -58c0 -33 -27 -59 -59 -59c-33 0 -60 26 -60 59zM50 297v75h453v-75h-453z" />
    <glyph glyph-name="lozenge" unicode="&#x25ca;" horiz-adv-x="667" 
d="M74 334l259 359l260 -359l-260 -360zM530 334l-197 270l-197 -270l197 -271z" />
    <glyph glyph-name="ydieresis" unicode="&#xff;" horiz-adv-x="471" 
d="M183 -14l-167 489h105l116 -378l121 378h102l-159 -452l-20 -58c-41 -118 -105 -165 -222 -165c-7 0 -17 0 -31 1v85h17c81 0 108 20 138 100zM70 615c0 34 28 61 61 61c34 0 61 -27 61 -61c0 -33 -27 -61 -61 -61c-33 0 -61 28 -61 61zM274 615c0 34 28 61 61 61
c34 0 61 -27 61 -61c0 -33 -27 -61 -61 -61c-33 0 -61 28 -61 61z" />
    <glyph glyph-name="Ydieresis" unicode="&#x178;" horiz-adv-x="539" 
d="M218 271l-213 396h117l149 -288l147 288h115l-212 -396v-271h-103v271zM112 790c0 37 30 66 66 66c37 0 66 -29 66 -66c0 -36 -29 -65 -66 -65c-36 0 -66 29 -66 65zM295 790c0 37 29 66 66 66c36 0 65 -29 65 -66c0 -36 -29 -65 -65 -65c-37 0 -66 29 -66 65z" />
    <glyph glyph-name="Acircumflex" unicode="&#xc2;" horiz-adv-x="585" 
d="M15 0l227 669h100l228 -669h-107l-49 156h-243l-50 -156h-106zM208 722h-95l134 137h91l134 -137h-95l-84 83zM198 245h189l-95 300z" />
    <glyph glyph-name="Ecircumflex" unicode="&#xca;" horiz-adv-x="520" 
d="M186 578v-188h267v-89h-267v-212h300v-89h-403v667h394v-89h-291zM200 722h-95l134 137h91l134 -137h-95l-84 83z" />
    <glyph glyph-name="Aacute" unicode="&#xc1;" horiz-adv-x="585" 
d="M15 0l227 669h100l228 -669h-107l-49 156h-243l-50 -156h-106zM324 715h-95l154 151h127zM198 245h189l-95 300z" />
    <glyph glyph-name="Edieresis" unicode="&#xcb;" horiz-adv-x="520" 
d="M186 578v-188h267v-89h-267v-212h300v-89h-403v667h394v-89h-291zM127 790c0 37 30 66 66 66c37 0 66 -29 66 -66c0 -36 -29 -65 -66 -65c-36 0 -66 29 -66 65zM310 790c0 37 29 66 66 66c36 0 65 -29 65 -66c0 -36 -29 -65 -65 -65c-37 0 -66 29 -66 65z" />
    <glyph glyph-name="Egrave" unicode="&#xc8;" horiz-adv-x="520" 
d="M183 578v-188h268v-89h-268v-212h300v-89h-403v667h395v-89h-292zM197 866l153 -151h-95l-185 151h127z" />
    <glyph glyph-name="Iacute" unicode="&#xcd;" horiz-adv-x="269" 
d="M186 667v-667h-104v667h104zM172 715h-95l153 151h127z" />
    <glyph glyph-name="Icircumflex" unicode="&#xce;" horiz-adv-x="269" 
d="M186 667v-667h-104v667h104zM50 722h-95l134 137h90l134 -137h-94l-85 83z" />
    <glyph glyph-name="Idieresis" unicode="&#xcf;" horiz-adv-x="269" 
d="M186 667v-667h-104v667h104zM-8 790c0 35 28 63 63 63c34 0 63 -28 63 -63s-29 -63 -63 -63c-35 0 -63 28 -63 63zM151 790c0 35 28 63 63 63s63 -28 63 -63s-28 -63 -63 -63s-63 28 -63 63z" />
    <glyph glyph-name="Igrave" unicode="&#xcc;" horiz-adv-x="269" 
d="M186 667v-667h-104v667h104zM44 866l153 -151h-95l-186 151h128z" />
    <glyph glyph-name="Oacute" unicode="&#xd3;" horiz-adv-x="660" 
d="M330 -12c-172 0 -287 139 -287 345c0 207 115 346 287 346s288 -139 288 -346c-1 -207 -116 -345 -288 -345zM357 715h-95l153 151h127zM330 590c-110 0 -179 -99 -179 -257c0 -157 69 -256 179 -256s179 99 179 256c0 158 -69 257 -179 257z" />
    <glyph glyph-name="Ocircumflex" unicode="&#xd4;" horiz-adv-x="660" 
d="M330 -12c-172 0 -287 139 -287 345c0 207 115 346 287 346s288 -139 288 -346c-1 -207 -116 -345 -288 -345zM246 722h-95l134 137h90l134 -137h-94l-85 83zM330 590c-110 0 -179 -99 -179 -257c0 -157 69 -256 179 -256s179 99 179 256c0 158 -69 257 -179 257z" />
    <glyph glyph-name="apple" unicode="&#xf8ff;" horiz-adv-x="667" 
d="M332 518c2 97 57 161 148 173v-10c0 -87 -69 -163 -148 -163zM479 528c61 0 109 -24 144 -71c-58 -45 -80 -84 -80 -140c0 -66 37 -122 99 -148c-50 -124 -112 -196 -169 -196c-13 0 -27 3 -40 9l-41 17c-5 2 -16 4 -33 4c-20 0 -45 -3 -51 -5l-43 -18
c-14 -5 -27 -8 -38 -8c-36 0 -75 29 -111 82c-53 78 -84 172 -84 252c0 130 77 220 187 220c24 0 45 -5 77 -18c22 -8 38 -12 48 -12s25 3 43 10c55 20 62 22 92 22z" />
    <glyph glyph-name="Ograve" unicode="&#xd2;" horiz-adv-x="660" 
d="M330 -12c-172 0 -287 139 -287 345c0 207 115 346 287 346s288 -139 288 -346c-1 -207 -116 -345 -288 -345zM249 866l154 -151h-96l-185 151h127zM330 590c-110 0 -179 -99 -179 -257c0 -157 69 -256 179 -256s179 99 179 256c0 158 -69 257 -179 257z" />
    <glyph glyph-name="Uacute" unicode="&#xda;" horiz-adv-x="651" 
d="M75 278v389h103v-388c0 -97 5 -123 30 -154c24 -30 68 -48 118 -48c80 0 133 41 143 111c3 24 4 37 4 91v388h103v-389c0 -100 -3 -127 -21 -166c-36 -78 -121 -124 -229 -124c-109 0 -194 46 -230 124c-18 39 -21 65 -21 166zM352 715h-95l153 151h128z" />
    <glyph glyph-name="Ucircumflex" unicode="&#xdb;" horiz-adv-x="651" 
d="M75 278v389h103v-388c0 -97 5 -123 30 -154c24 -30 68 -48 118 -48c80 0 133 41 143 111c3 24 4 37 4 91v388h103v-389c0 -100 -3 -127 -21 -166c-36 -78 -121 -124 -229 -124c-109 0 -194 46 -230 124c-18 39 -21 65 -21 166zM242 722h-95l133 137h91l134 -137h-95
l-84 83z" />
    <glyph glyph-name="Ugrave" unicode="&#xd9;" horiz-adv-x="651" 
d="M75 278v389h103v-388c0 -97 5 -123 30 -154c24 -30 68 -48 118 -48c80 0 133 41 143 111c3 24 4 37 4 91v388h103v-389c0 -100 -3 -127 -21 -166c-36 -78 -121 -124 -229 -124c-109 0 -194 46 -230 124c-18 39 -21 65 -21 166zM252 866l153 -151h-95l-186 151h128z" />
    </font>
</defs>
</svg>
