<?xml version="1.0" standalone="no"?>
<!DOCTYPE svg PUBLIC "-//W3C//DTD SVG 1.1//EN" "http://www.w3.org/Graphics/SVG/1.1/DTD/svg11.dtd" >
<svg xmlns="http://www.w3.org/2000/svg" xmlns:xlink="http://www.w3.org/1999/xlink" version="1.1">
<metadata>
Created by FontForge 20160407 at Sun May  1 09:09:22 2016
 By Jimmy Wärting
Copyright (c) 2004 Linotype Library GmbH, www.linotype.com. All rights reserved. This software may not be reproduced, used, displayed, modified, disclosed or transferred without the express written approval of Linotype Library GmbH. Avenir is a trademark of Heidelberger Druckmaschinen AG, exclusively licensed through Linotype Library GmbH, and may be registered in certain jurisdictions. This typeface is original artwork of Adrian Frutiger. The design may be protected in certain jurisdictions.
</metadata>
<defs>
<font id="AvenirNextLTPro-Demi" horiz-adv-x="260" >
  <font-face 
    font-family="Avenir Next LT Pro"
    font-weight="600"
    font-stretch="normal"
    units-per-em="1000"
    panose-1="2 11 7 4 2 2 2 2 2 4"
    ascent="756"
    descent="-244"
    x-height="480"
    cap-height="708"
    bbox="-214 -250 1192 957"
    underline-thickness="50"
    underline-position="-100"
    stemh="78"
    stemv="120"
    unicode-range="U+000D-FB02"
  />
<missing-glyph horiz-adv-x="512" 
d="M222 117h56v67h-56v-67zM225 234h46c0 35 2 59 6 72s18 30 43 52c51 47 63 77 63 120c0 79 -53 131 -124 131c-72 0 -126 -42 -135 -137l50 -8c8 68 41 95 82 95s76 -37 76 -85c0 -25 -7 -42 -50 -83c-22 -22 -37 -42 -46 -59s-13 -44 -13 -81zM462 50h-412v617h412v-617
zM512 718h-512v-718h512v718z" />
    <glyph glyph-name="fi" unicode="fi" horiz-adv-x="593" 
d="M410 0v480h120v-480h-120zM393 643c0 38 32 72 76 72s78 -31 78 -72s-34 -72 -78 -72s-76 34 -76 72zM91 0v384h-91v96h91v71c0 115 45 217 194 217c26 0 43 -2 61 -7l-8 -102c-13 4 -29 7 -46 7c-69 0 -81 -60 -81 -108v-78h111v-96h-111v-384h-120z" />
    <glyph glyph-name="fl" unicode="fl" horiz-adv-x="593" 
d="M410 0v756h120v-756h-120zM91 0v384h-91v96h91v71c0 115 45 217 194 217c26 0 43 -2 61 -7l-8 -102c-13 4 -29 7 -46 7c-69 0 -81 -60 -81 -108v-78h111v-96h-111v-384h-120z" />
    <glyph glyph-name="napostrophe" unicode="&#x22;n" horiz-adv-x="622" 
d="M112 0v480h114v-77h2c21 48 78 91 149 91c125 0 177 -96 177 -194v-300h-120v266c0 57 -13 128 -90 128c-76 0 -112 -66 -112 -130v-264h-120zM-23 513l65 195h106l-80 -195h-91z" />
    <glyph glyph-name="ij" unicode="ij" horiz-adv-x="536" 
d="M74 0v480h120v-480h-120zM57 643c0 38 32 72 76 72s78 -31 78 -72s-34 -72 -78 -72s-76 34 -76 72zM342 480h120v-509c0 -115 -31 -211 -174 -211c-20 0 -42 3 -54 6l10 102c11 -3 24 -4 33 -4c57 0 65 47 65 102v514zM325 643c0 38 32 72 76 72s78 -31 78 -72
s-34 -72 -78 -72s-76 34 -76 72z" />
    <glyph glyph-name="IJ" unicode="IJ" horiz-adv-x="770" 
d="M78 0v708h126v-708h-126zM698 708v-479c0 -103 -36 -247 -213 -247c-114 0 -183 63 -208 156l116 33c12 -47 46 -76 90 -76c72 0 89 57 89 138v475h126z" />
    <glyph glyph-name=".notdef" horiz-adv-x="512" 
d="M222 117h56v67h-56v-67zM225 234h46c0 35 2 59 6 72s18 30 43 52c51 47 63 77 63 120c0 79 -53 131 -124 131c-72 0 -126 -42 -135 -137l50 -8c8 68 41 95 82 95s76 -37 76 -85c0 -25 -7 -42 -50 -83c-22 -22 -37 -42 -46 -59s-13 -44 -13 -81zM462 50h-412v617h412v-617
zM512 718h-512v-718h512v718z" />
    <glyph glyph-name="exclam" unicode="!" horiz-adv-x="340" 
d="M230 708v-486h-120v486h120zM90 70c0 43 36 78 80 78c43 0 80 -33 80 -76s-36 -78 -80 -78c-42 0 -80 33 -80 76z" />
    <glyph glyph-name="quotedbl" unicode="&#x22;" horiz-adv-x="459" 
d="M90 444v264h102v-264h-102zM267 444v264h102v-264h-102z" />
    <glyph glyph-name="numbersign" unicode="#" horiz-adv-x="592" 
d="M107 0l30 209h-90v84h101l18 122h-90v84h101l30 209h88l-30 -209h103l30 209h87l-30 -209h90v-84h-102l-17 -122h90v-84h-100l-31 -209h-87l30 209h-104l-30 -209h-87zM356 415h-103l-17 -122h103z" />
    <glyph glyph-name="dollar" unicode="$" horiz-adv-x="610" 
d="M330 786v-66c73 -1 154 -24 208 -71l-81 -84c-31 34 -81 53 -127 53v-202c102 -32 213 -79 213 -214c0 -139 -102 -210 -213 -213v-72h-54v72c-88 3 -172 32 -235 93l88 84c36 -42 96 -73 147 -74v222c-117 32 -209 78 -209 206c0 119 102 191 209 198v68h54zM276 430
v188c-47 -5 -89 -34 -89 -92c0 -55 38 -81 89 -96zM330 298v-206c56 3 93 44 93 103s-40 85 -93 103z" />
    <glyph glyph-name="percent" unicode="%" horiz-adv-x="930" 
d="M518 174c0 103 83 186 186 186s186 -83 186 -186s-83 -186 -186 -186s-186 83 -186 186zM794 174c0 50 -40 90 -90 90s-90 -40 -90 -90s40 -90 90 -90s90 40 90 90zM40 534c0 103 83 186 186 186s186 -83 186 -186s-83 -186 -186 -186s-186 83 -186 186zM316 534
c0 50 -40 90 -90 90s-90 -40 -90 -90s40 -90 90 -90s90 40 90 90zM215 6l416 734l83 -38l-416 -734z" />
    <glyph glyph-name="ampersand" unicode="&#x26;" horiz-adv-x="741" 
d="M712 374l-142 -205l165 -169h-160l-78 81c-47 -55 -109 -95 -212 -95c-125 0 -237 71 -237 206c0 105 75 167 154 201c-47 48 -76 98 -76 159c0 121 102 174 200 174c102 0 196 -56 196 -172c0 -91 -65 -151 -145 -188l116 -121l82 129h137zM328 629
c-46 0 -83 -33 -83 -79c0 -40 23 -77 63 -113c55 23 102 60 102 113c0 43 -34 79 -82 79zM421 159l-151 157c-52 -19 -98 -51 -98 -119c0 -70 63 -111 117 -111c58 0 98 26 132 73z" />
    <glyph glyph-name="quoteright" unicode="&#x2019;" horiz-adv-x="270" 
d="M42 444l70 264h116l-85 -264h-101z" />
    <glyph glyph-name="parenleft" unicode="(" horiz-adv-x="330" 
d="M36 288c0 -163 55 -318 146 -444l84 55c-80 111 -127 251 -127 389s47 278 127 389l-84 55c-91 -126 -146 -281 -146 -444z" />
    <glyph glyph-name="parenright" unicode=")" horiz-adv-x="330" 
d="M294 288c0 -163 -55 -318 -146 -444l-84 55c80 111 127 251 127 389s-47 278 -127 389l84 55c91 -126 146 -281 146 -444z" />
    <glyph glyph-name="asterisk" unicode="*" horiz-adv-x="463" 
d="M274 708v-142l135 44l26 -80l-136 -44l86 -117l-69 -50l-86 118l-84 -115l-67 51l86 113l-137 47l26 80l136 -47v142h84z" />
    <glyph glyph-name="plus" unicode="+" horiz-adv-x="666" 
d="M62 354h220v220h102v-220h220v-102h-220v-220h-102v220h-220v102z" />
    <glyph glyph-name="comma" unicode="," 
d="M24 -126l70 264h116l-85 -264h-101z" />
    <glyph glyph-name="hyphen" unicode="-" horiz-adv-x="320" 
d="M280 297v-102h-240v102h240z" />
    <glyph glyph-name="period" unicode="." 
d="M50 70c0 43 36 78 80 78c43 0 80 -33 80 -76s-36 -78 -80 -78c-42 0 -80 33 -80 76z" />
    <glyph glyph-name="slash" unicode="/" horiz-adv-x="389" 
d="M386 726l-312 -774l-83 30l312 776z" />
    <glyph glyph-name="zero" unicode="0" horiz-adv-x="610" 
d="M555 354c0 -229 -89 -372 -249 -372c-161 0 -251 143 -251 372s90 372 251 372c160 0 249 -143 249 -372zM432 354c0 99 -19 272 -126 272c-108 0 -128 -173 -128 -272s20 -270 128 -270c107 0 126 171 126 270z" />
    <glyph glyph-name="one" unicode="1" horiz-adv-x="610" 
d="M279 0v562l-140 -115l-70 83l221 178h109v-708h-120z" />
    <glyph glyph-name="two" unicode="2" horiz-adv-x="610" 
d="M69 0v110l273 268c44 43 72 84 72 139c0 66 -49 109 -113 109c-68 0 -111 -52 -120 -121l-117 18c14 117 109 203 239 203c123 0 236 -71 236 -207c0 -91 -51 -154 -114 -214l-204 -195h319v-110h-471z" />
    <glyph glyph-name="three" unicode="3" horiz-adv-x="610" 
d="M212 321v96h32c71 0 151 20 151 107c0 64 -52 102 -112 102c-58 0 -99 -37 -113 -91l-113 29c25 95 118 162 231 162c124 0 228 -67 228 -194c0 -76 -50 -141 -127 -160v-2c86 -17 146 -83 146 -170c0 -147 -127 -218 -247 -218c-119 0 -219 49 -257 167l112 35
c17 -56 66 -100 141 -100c62 0 130 32 130 117c0 92 -97 120 -172 120h-30z" />
    <glyph glyph-name="four" unicode="4" horiz-adv-x="610" 
d="M348 0v147h-327v106l301 455h144v-458h99v-103h-99v-147h-118zM348 250v317h-2l-201 -317h203z" />
    <glyph glyph-name="five" unicode="5" horiz-adv-x="610" 
d="M505 708v-108h-289l-7 -153c22 6 58 9 83 9c139 0 244 -81 244 -224c0 -157 -117 -250 -258 -250c-118 0 -202 60 -239 155l109 40c20 -56 70 -93 133 -93c71 0 132 49 132 135c0 109 -81 141 -158 141c-54 0 -122 -17 -165 -39l12 387h403z" />
    <glyph glyph-name="six" unicode="6" horiz-adv-x="610" 
d="M295 708h146l-181 -262l1 -1c19 8 51 12 75 12c125 0 226 -98 226 -227c0 -150 -113 -248 -258 -248c-148 0 -259 106 -259 243c0 81 27 136 73 209zM167 222c0 -74 53 -138 136 -138c81 0 136 56 136 140c0 80 -54 138 -134 138c-81 0 -138 -57 -138 -140z" />
    <glyph glyph-name="seven" unicode="7" horiz-adv-x="610" 
d="M51 600v108h481v-110l-283 -598h-141l298 600h-355z" />
    <glyph glyph-name="eight" unicode="8" horiz-adv-x="610" 
d="M305 726c124 0 224 -72 224 -192c0 -82 -46 -139 -110 -160v-2c74 -18 133 -85 133 -172c0 -141 -111 -218 -247 -218s-247 77 -247 218c0 92 64 154 133 172v2c-63 23 -110 73 -110 155c0 120 100 197 224 197zM305 627c-59 0 -102 -39 -102 -100
c0 -57 40 -103 102 -103c57 0 103 46 103 103c0 61 -49 100 -103 100zM305 322c-69 0 -123 -49 -123 -121c0 -74 53 -118 123 -118c69 0 122 44 122 118c0 70 -54 121 -122 121z" />
    <glyph glyph-name="nine" unicode="9" horiz-adv-x="610" 
d="M314 0h-146l182 263l-1 1c-20 -9 -52 -13 -76 -13c-125 0 -226 98 -226 227c0 150 113 248 258 248c148 0 259 -106 259 -243c0 -81 -27 -136 -73 -209zM442 486c0 74 -53 140 -136 140c-81 0 -136 -58 -136 -142c0 -80 54 -138 134 -138c81 0 138 57 138 140z" />
    <glyph glyph-name="colon" unicode=":" horiz-adv-x="300" 
d="M70 70c0 43 36 78 80 78c43 0 80 -33 80 -76s-36 -78 -80 -78c-42 0 -80 33 -80 76zM70 408c0 43 36 78 80 78c43 0 80 -33 80 -76s-36 -78 -80 -78c-42 0 -80 33 -80 76z" />
    <glyph glyph-name="semicolon" unicode=";" horiz-adv-x="300" 
d="M40 -126l70 264h122l-85 -264h-107zM70 409c0 43 36 78 80 78c43 0 80 -33 80 -76s-36 -78 -80 -78c-42 0 -80 33 -80 76z" />
    <glyph glyph-name="less" unicode="&#x3c;" horiz-adv-x="666" 
d="M586 42l-506 225v72l506 225v-110l-338 -151l338 -151v-110z" />
    <glyph glyph-name="equal" unicode="=" horiz-adv-x="666" 
d="M80 444h506v-102h-506v102zM80 264h506v-102h-506v102z" />
    <glyph glyph-name="greater" unicode="&#x3e;" horiz-adv-x="666" 
d="M80 564l506 -225v-72l-506 -225v110l338 151l-338 151v110z" />
    <glyph glyph-name="question" unicode="?" horiz-adv-x="519" 
d="M328 209h-118v38c0 64 16 98 66 146l45 43c25 23 46 49 46 89c0 52 -35 92 -94 92c-62 0 -100 -50 -102 -104l-123 11c15 127 110 202 233 202c115 0 213 -67 213 -193c0 -85 -38 -123 -100 -177c-52 -46 -66 -63 -66 -121v-26zM190 70c0 43 36 78 80 78
c43 0 80 -33 80 -76s-36 -78 -80 -78c-42 0 -80 33 -80 76z" />
    <glyph glyph-name="at" unicode="@" horiz-adv-x="800" 
d="M412 467c-63 0 -98 -83 -98 -147c0 -32 12 -77 64 -77c73 0 100 82 100 136c0 42 -14 88 -66 88zM670 163l55 -60c-78 -83 -192 -121 -311 -121c-229 0 -382 154 -382 371c0 213 171 373 382 373c182 0 354 -106 354 -321c0 -161 -95 -245 -198 -245c-53 0 -88 29 -88 67
h-5c-20 -32 -62 -67 -122 -67c-90 0 -142 66 -142 162c0 113 79 227 196 227c51 0 88 -24 98 -55h1l8 40h89l-39 -189c-3 -18 -9 -43 -9 -63c0 -23 7 -40 32 -40c52 0 90 61 90 155c0 161 -112 248 -267 248c-169 0 -283 -127 -283 -293c0 -176 122 -287 294 -287
c108 0 182 37 247 98z" />
    <glyph glyph-name="A" unicode="A" horiz-adv-x="706" 
d="M-8 0l308 708h109l305 -708h-144l-66 162h-307l-64 -162h-141zM240 270h220l-109 288z" />
    <glyph glyph-name="B" unicode="B" horiz-adv-x="647" 
d="M78 0v708h276c107 0 217 -49 217 -178c0 -80 -50 -133 -123 -155v-2c89 -12 153 -72 153 -167c0 -154 -134 -206 -268 -206h-255zM204 604v-184h112c84 0 129 35 129 96c0 63 -45 88 -140 88h-101zM204 312v-206h113c65 0 158 13 158 106c0 74 -51 100 -153 100h-118z
" />
    <glyph glyph-name="C" unicode="C" horiz-adv-x="696" 
d="M685 618l-96 -76c-37 51 -104 73 -161 73c-146 0 -245 -113 -245 -259c0 -154 94 -261 240 -261c76 0 136 33 172 82l101 -71c-62 -78 -154 -124 -274 -124c-221 0 -378 153 -378 374c0 227 166 370 384 370c92 0 201 -34 257 -108z" />
    <glyph glyph-name="D" unicode="D" horiz-adv-x="764" 
d="M78 0v708h251c185 0 391 -88 391 -354c0 -248 -206 -354 -391 -354h-251zM204 110h105c130 0 276 53 276 244c0 203 -146 246 -276 246h-105v-490z" />
    <glyph glyph-name="E" unicode="E" horiz-adv-x="610" 
d="M78 0v708h469v-110h-343v-180h325v-106h-325v-200h361v-112h-487z" />
    <glyph glyph-name="F" unicode="F" horiz-adv-x="573" 
d="M78 0v708h457v-110h-331v-194h312v-106h-312v-298h-126z" />
    <glyph glyph-name="G" unicode="G" horiz-adv-x="773" 
d="M698 404v-367c-71 -34 -156 -55 -267 -55c-228 0 -387 153 -387 374c0 227 166 370 384 370c112 0 212 -36 269 -89l-87 -94c-36 40 -105 72 -181 72c-149 0 -246 -113 -246 -259c0 -151 96 -261 252 -261c53 0 100 8 141 25v180h-149v104h271z" />
    <glyph glyph-name="H" unicode="H" horiz-adv-x="739" 
d="M78 0v708h126v-286h331v286h126v-708h-126v314h-331v-314h-126z" />
    <glyph glyph-name="I" unicode="I" horiz-adv-x="282" 
d="M78 0v708h126v-708h-126z" />
    <glyph glyph-name="J" unicode="J" horiz-adv-x="498" 
d="M426 708v-479c0 -103 -36 -247 -213 -247c-114 0 -183 63 -208 156l116 33c12 -47 46 -76 90 -76c72 0 89 57 89 138v475h126z" />
    <glyph glyph-name="K" unicode="K" horiz-adv-x="689" 
d="M78 0v708h126v-306h3l296 306h170l-331 -327l353 -381h-177l-311 355h-3v-355h-126z" />
    <glyph glyph-name="L" unicode="L" horiz-adv-x="511" 
d="M78 0v708h126v-596h301v-112h-427z" />
    <glyph glyph-name="M" unicode="M" horiz-adv-x="920" 
d="M78 0v708h197l184 -503h3l182 503h198v-708h-125v569h-2l-215 -569h-88l-212 569h-2v-569h-120z" />
    <glyph glyph-name="N" unicode="N" horiz-adv-x="780" 
d="M78 0v708h167l329 -530h2v530h126v-708h-160l-336 547h-2v-547h-126z" />
    <glyph glyph-name="O" unicode="O" horiz-adv-x="849" 
d="M44 356c0 227 161 370 379 370c221 0 382 -143 382 -370c0 -221 -161 -374 -382 -374c-218 0 -379 153 -379 374zM181 356c0 -151 99 -261 243 -261c145 0 244 110 244 261c0 146 -97 259 -244 259c-146 0 -243 -113 -243 -259z" />
    <glyph glyph-name="P" unicode="P" horiz-adv-x="610" 
d="M78 0v708h231c162 0 267 -57 267 -205c0 -156 -125 -210 -275 -210h-97v-293h-126zM204 399h88c82 0 157 20 157 104s-75 99 -153 99h-92v-203z" />
    <glyph glyph-name="Q" unicode="Q" horiz-adv-x="852" 
d="M841 102v-102h-427c-226 0 -377 133 -377 363c0 215 162 363 379 363s376 -148 376 -363c0 -127 -63 -214 -126 -259v-2h175zM416 613c-137 0 -241 -106 -241 -250c0 -151 97 -253 239 -253c140 0 241 102 241 253c0 144 -96 250 -239 250z" />
    <glyph glyph-name="R" unicode="R" horiz-adv-x="629" 
d="M78 0v708h246c133 0 261 -53 261 -203c0 -102 -63 -169 -162 -191l189 -314h-152l-164 300h-92v-300h-126zM204 403h103c71 0 152 17 152 103c0 77 -76 96 -141 96h-114v-199z" />
    <glyph glyph-name="S" unicode="S" horiz-adv-x="574" 
d="M521 650l-82 -90c-27 35 -80 61 -130 61c-58 0 -125 -28 -125 -97c0 -65 55 -84 135 -109c91 -28 207 -68 207 -207c0 -152 -119 -226 -258 -226c-92 0 -187 35 -243 101l90 84c35 -48 99 -78 155 -78c59 0 128 29 128 105c0 74 -74 95 -163 123c-86 27 -179 69 -179 201
c0 144 131 208 259 208c71 0 152 -25 206 -76z" />
    <glyph glyph-name="T" unicode="T" horiz-adv-x="568" 
d="M221 0v598h-217v110h560v-110h-217v-598h-126z" />
    <glyph glyph-name="U" unicode="U" horiz-adv-x="714" 
d="M642 708v-448c0 -171 -123 -278 -285 -278s-285 107 -285 278v448h126v-443c0 -82 38 -170 159 -170s159 88 159 170v443h126z" />
    <glyph glyph-name="V" unicode="V" horiz-adv-x="653" 
d="M270 0l-280 708h141l195 -545h4l197 545h136l-284 -708h-109z" />
    <glyph glyph-name="W" unicode="W" horiz-adv-x="1004" 
d="M213 0l-207 708h138l137 -520h2l156 520h130l153 -520h2l140 520h134l-207 -708h-122l-166 531h-2l-166 -531h-122z" />
    <glyph glyph-name="X" unicode="X" horiz-adv-x="658" 
d="M4 0l245 378l-220 330h152l146 -242l144 242h145l-216 -333l254 -375h-159l-173 278l-166 -278h-152z" />
    <glyph glyph-name="Y" unicode="Y" horiz-adv-x="622" 
d="M249 0v307l-266 401h154l178 -298l180 298h146l-266 -401v-307h-126z" />
    <glyph glyph-name="Z" unicode="Z" horiz-adv-x="611" 
d="M35 0v114l385 484h-379v110h529v-114l-387 -482h393v-112h-541z" />
    <glyph glyph-name="bracketleft" unicode="[" horiz-adv-x="330" 
d="M252 732v-78h-90v-732h90v-78h-192v888h192z" />
    <glyph glyph-name="backslash" unicode="\" horiz-adv-x="389" 
d="M3 726l83 32l312 -776l-83 -30z" />
    <glyph glyph-name="bracketright" unicode="]" horiz-adv-x="330" 
d="M78 -156v78h90v732h-90v78h192v-888h-192z" />
    <glyph glyph-name="asciicircum" unicode="^" horiz-adv-x="666" 
d="M187 343h-118l223 365h82l223 -365h-118l-147 239z" />
    <glyph glyph-name="underscore" unicode="_" horiz-adv-x="500" 
d="M500 -75v-75h-500v75h500z" />
    <glyph glyph-name="quoteleft" unicode="&#x2018;" horiz-adv-x="270" 
d="M228 708l-70 -264h-116l85 264h101z" />
    <glyph glyph-name="a" unicode="a" horiz-adv-x="550" 
d="M370 0v61h-3c-24 -42 -81 -73 -149 -73c-77 0 -180 37 -180 149c0 143 180 163 330 163v12c0 59 -50 88 -110 88c-51 0 -100 -24 -131 -55l-62 73c54 50 130 76 203 76c172 0 214 -106 214 -202v-292h-112zM368 202v17h-27c-76 0 -183 -9 -183 -80c0 -46 43 -60 84 -60
c82 0 126 47 126 123z" />
    <glyph glyph-name="b" unicode="b" horiz-adv-x="635" 
d="M74 756h120v-337h3c25 31 73 75 161 75c137 0 233 -110 233 -252c0 -140 -90 -256 -236 -256c-67 0 -132 31 -165 86h-2v-72h-114v756zM469 242c0 75 -45 154 -138 154c-88 0 -141 -81 -141 -156s53 -154 141 -154c93 0 138 81 138 156z" />
    <glyph glyph-name="c" unicode="c" horiz-adv-x="488" 
d="M482 419l-82 -72c-19 27 -60 47 -99 47c-88 0 -132 -79 -132 -154s45 -154 136 -154c37 0 78 15 101 43l75 -76c-40 -43 -106 -67 -177 -67c-142 0 -260 94 -260 254c0 156 116 254 257 254c70 0 143 -28 181 -75z" />
    <glyph glyph-name="d" unicode="d" horiz-adv-x="634" 
d="M560 756v-756h-114v72h-2c-33 -55 -98 -86 -165 -86c-146 0 -236 116 -236 256c0 142 96 252 233 252c88 0 136 -44 161 -75h3v337h120zM165 242c0 -75 45 -156 138 -156c88 0 141 79 141 154s-53 156 -141 156c-93 0 -138 -79 -138 -154z" />
    <glyph glyph-name="e" unicode="e" horiz-adv-x="574" 
d="M164 288h246c0 62 -35 116 -113 116c-71 0 -128 -49 -133 -116zM530 234c0 -11 0 -21 -1 -32h-365c5 -68 67 -118 137 -118c60 0 100 24 127 62l80 -64c-47 -64 -115 -96 -206 -96c-148 0 -258 95 -258 251c0 155 109 257 254 257c134 0 232 -87 232 -260z" />
    <glyph glyph-name="f" unicode="f" horiz-adv-x="324" 
d="M91 0v384h-91v96h91v71c0 115 45 217 194 217c26 0 43 -2 61 -7l-8 -102c-13 4 -29 7 -46 7c-69 0 -81 -60 -81 -108v-78h111v-96h-111v-384h-120z" />
    <glyph glyph-name="g" unicode="g" horiz-adv-x="632" 
d="M446 480h114v-437c0 -173 -84 -283 -271 -283c-78 0 -176 28 -238 79l69 93c46 -44 108 -68 168 -68c116 0 152 70 152 165v35h-2c-35 -47 -91 -72 -157 -72c-144 0 -237 114 -237 250c0 139 90 252 235 252c67 0 130 -28 165 -86h2v72zM304 396
c-87 0 -138 -68 -138 -153c0 -76 51 -152 137 -152c89 0 143 72 143 152c0 83 -55 153 -142 153z" />
    <glyph glyph-name="h" unicode="h" horiz-adv-x="584" 
d="M339 494c125 0 177 -96 177 -194v-300h-120v264c0 57 -12 127 -89 127c-76 0 -113 -65 -113 -129v-262h-120v756h120v-343h2c19 40 72 81 143 81z" />
    <glyph glyph-name="i" unicode="i" horiz-adv-x="268" 
d="M74 0v480h120v-480h-120zM57 643c0 38 32 72 76 72s78 -31 78 -72s-34 -72 -78 -72s-76 34 -76 72z" />
    <glyph glyph-name="j" unicode="j" horiz-adv-x="268" 
d="M74 480h120v-509c0 -115 -31 -211 -174 -211c-20 0 -42 3 -54 6l10 102c11 -3 24 -4 33 -4c57 0 65 47 65 102v514zM57 643c0 38 32 72 76 72s78 -31 78 -72s-34 -72 -78 -72s-76 34 -76 72z" />
    <glyph glyph-name="k" unicode="k" horiz-adv-x="543" 
d="M74 0v756h120v-478h3l182 202h154l-208 -217l221 -263h-159l-190 246h-3v-246h-120z" />
    <glyph glyph-name="l" unicode="l" horiz-adv-x="268" 
d="M74 0v756h120v-756h-120z" />
    <glyph glyph-name="m" unicode="m" horiz-adv-x="890" 
d="M645 494c125 0 177 -96 177 -194v-300h-120v266c0 57 -13 128 -90 128c-75 0 -106 -70 -106 -132v-262h-120v290c0 59 -28 104 -89 104c-72 0 -105 -66 -105 -130v-264h-120v480h114v-77h2c21 47 72 91 149 91c74 0 123 -37 150 -91c32 58 86 91 158 91z" />
    <glyph glyph-name="n" unicode="n" horiz-adv-x="582" 
d="M72 0v480h114v-77h2c21 48 78 91 149 91c125 0 177 -96 177 -194v-300h-120v266c0 57 -13 128 -90 128c-76 0 -112 -66 -112 -130v-264h-120z" />
    <glyph glyph-name="o" unicode="o" horiz-adv-x="610" 
d="M44 242c0 151 116 252 261 252s261 -101 261 -252s-116 -256 -261 -256s-261 105 -261 256zM166 242c0 -75 44 -156 139 -156s139 81 139 156s-44 154 -139 154s-139 -79 -139 -154z" />
    <glyph glyph-name="p" unicode="p" horiz-adv-x="633" 
d="M72 480h115v-67h3c24 38 78 81 166 81c137 0 233 -110 233 -252c0 -140 -90 -256 -236 -256c-67 0 -128 30 -159 78h-2v-304h-120v720zM467 242c0 75 -45 154 -138 154c-88 0 -141 -81 -141 -156s53 -154 141 -154c93 0 138 81 138 156z" />
    <glyph glyph-name="q" unicode="q" horiz-adv-x="632" 
d="M560 480v-720h-120v304h-2c-31 -48 -92 -78 -159 -78c-146 0 -236 116 -236 256c0 142 96 252 233 252c88 0 142 -43 166 -81h3v67h115zM165 242c0 -75 45 -156 138 -156c88 0 141 79 141 154s-53 156 -141 156c-93 0 -138 -79 -138 -154z" />
    <glyph glyph-name="r" unicode="r" horiz-adv-x="364" 
d="M72 0v480h115v-80h2c26 55 77 94 140 94c9 0 21 -1 29 -3v-110c-16 4 -26 5 -37 5c-108 0 -129 -94 -129 -129v-257h-120z" />
    <glyph glyph-name="s" unicode="s" horiz-adv-x="444" 
d="M413 421l-78 -69c-21 28 -61 52 -105 52c-38 0 -77 -14 -77 -52c0 -37 37 -47 104 -63c71 -17 155 -49 155 -143c0 -117 -95 -160 -200 -160c-74 0 -151 28 -197 79l79 74c26 -34 71 -60 123 -60c35 0 77 14 77 57c0 40 -37 52 -110 69c-71 17 -142 46 -142 136
c0 107 96 153 191 153c69 0 141 -24 180 -73z" />
    <glyph glyph-name="t" unicode="t" horiz-adv-x="340" 
d="M87 384h-84v96h84v139h118v-139h120v-96h-120v-223c0 -43 10 -74 63 -74c16 0 37 3 51 10l4 -94c-21 -8 -53 -13 -80 -13c-127 0 -156 78 -156 170v224z" />
    <glyph glyph-name="u" unicode="u" horiz-adv-x="582" 
d="M510 480v-480h-114v77h-2c-21 -48 -78 -91 -149 -91c-125 0 -177 96 -177 194v300h120v-266c0 -57 13 -128 90 -128c76 0 112 66 112 130v264h120z" />
    <glyph glyph-name="v" unicode="v" horiz-adv-x="513" 
d="M194 0l-194 480h131l126 -350h2l127 350h127l-191 -480h-128z" />
    <glyph glyph-name="w" unicode="w" horiz-adv-x="804" 
d="M171 0l-167 480h130l100 -344h2l103 344h128l104 -344h2l102 344h125l-166 -480h-122l-109 336h-2l-108 -336h-122z" />
    <glyph glyph-name="x" unicode="x" horiz-adv-x="537" 
d="M-1 0l195 255l-173 225h144l104 -149l107 149h138l-172 -225l196 -255h-146l-125 175l-126 -175h-142z" />
    <glyph glyph-name="y" unicode="y" horiz-adv-x="513" 
d="M206 0l-206 480h133l134 -349h2l119 349h125l-227 -583c-34 -87 -76 -137 -182 -137c-20 0 -41 2 -62 7l10 104c16 -5 32 -7 45 -7c51 0 65 25 85 75z" />
    <glyph glyph-name="z" unicode="z" horiz-adv-x="482" 
d="M34 0v106l259 278h-247v96h390v-106l-260 -276h272v-98h-414z" />
    <glyph glyph-name="braceleft" unicode="{" horiz-adv-x="330" 
d="M10 244v88c28 0 69 13 69 70v198c0 90 61 132 128 132h73v-84h-55c-39 0 -44 -31 -44 -60v-188c0 -78 -66 -107 -98 -111v-2c32 -3 98 -24 98 -117v-182c0 -29 5 -60 44 -60h55v-84h-73c-67 0 -128 42 -128 132v191c0 63 -41 77 -69 77z" />
    <glyph glyph-name="bar" unicode="|" horiz-adv-x="222" 
d="M60 750h102v-1000h-102v1000z" />
    <glyph glyph-name="braceright" unicode="}" horiz-adv-x="330" 
d="M320 244v88c-28 0 -69 13 -69 70v198c0 90 -61 132 -128 132h-73v-84h55c39 0 44 -31 44 -60v-188c0 -78 66 -107 98 -111v-2c-32 -3 -98 -24 -98 -117v-182c0 -29 -5 -60 -44 -60h-55v-84h73c67 0 128 42 128 132v191c0 63 41 77 69 77z" />
    <glyph glyph-name="asciitilde" unicode="~" horiz-adv-x="666" 
d="M345 354c56 -36 66 -37 94 -37c32 0 57 23 78 63l77 -65c-47 -77 -100 -102 -153 -102c-43 0 -77 12 -121 40c-53 33 -72 36 -93 36c-28 0 -53 -16 -78 -63l-77 65c49 81 101 103 153 103c49 0 79 -13 120 -40z" />
    <glyph glyph-name="exclamdown" unicode="&#xa1;" horiz-adv-x="340" 
d="M230 -214h-120v486h120v-486zM90 424c0 43 38 76 80 76c44 0 80 -35 80 -78s-37 -76 -80 -76c-44 0 -80 35 -80 78z" />
    <glyph glyph-name="cent" unicode="&#xa2;" horiz-adv-x="610" 
d="M354 559v-67c63 -2 129 -20 170 -69l-77 -78c-25 26 -57 43 -93 45v-300c37 0 73 19 97 46l73 -79c-43 -47 -108 -67 -170 -69v-72h-54v72c-137 12 -222 118 -222 253c0 139 85 233 222 251v67h54zM300 90v299c-74 -15 -108 -76 -108 -149c0 -70 37 -132 108 -150z" />
    <glyph glyph-name="sterling" unicode="&#xa3;" horiz-adv-x="610" 
d="M66 0v107h98v208h-98v84h98v83c0 99 60 244 244 244c71 0 132 -22 176 -60l-71 -83c-25 27 -63 43 -105 43c-96 0 -122 -86 -122 -149v-78h164v-84h-164v-208h265v-107h-485z" />
    <glyph glyph-name="fraction" unicode="&#x2044;" horiz-adv-x="100" 
d="M-214 6l416 734l78 -38l-416 -734z" />
    <glyph glyph-name="yen" unicode="&#xa5;" horiz-adv-x="610" 
d="M245 0v155h-176v78h176v77h-176v78h145l-198 320h140l155 -288l149 288h134l-193 -320h140v-78h-176v-77h176v-78h-176v-155h-120z" />
    <glyph glyph-name="florin" unicode="&#x192;" horiz-adv-x="610" 
d="M480 426v-90h-138l-57 -288c-25 -127 -83 -187 -187 -187c-35 0 -71 8 -102 24l45 92c13 -9 31 -14 47 -14c52 0 68 44 80 104l53 269h-113v90h131l22 111c20 100 63 183 180 183c43 0 80 -11 117 -31l-46 -93c-17 10 -36 16 -55 16c-59 0 -71 -55 -81 -102l-18 -84h122z
" />
    <glyph glyph-name="section" unicode="&#xa7;" horiz-adv-x="610" 
d="M529 640l-82 -73c-27 39 -73 63 -115 63c-40 0 -90 -20 -90 -66c0 -50 55 -75 130 -106c81 -34 170 -79 170 -178c0 -55 -36 -105 -81 -128c39 -29 52 -68 52 -116c0 -121 -113 -180 -218 -180c-83 0 -178 36 -227 113l99 59c24 -47 78 -70 127 -70c41 0 95 22 95 71
c0 59 -52 76 -150 114c-74 29 -153 66 -153 159c0 73 46 119 96 145c-41 26 -61 64 -61 114c0 111 109 165 208 165c78 0 155 -29 200 -86zM281 239l104 -43c27 13 43 41 43 68c0 50 -43 72 -81 90l-89 40c-31 -13 -58 -31 -58 -70c0 -49 43 -68 81 -85z" />
    <glyph glyph-name="currency" unicode="&#xa4;" horiz-adv-x="920" 
d="M687 462c28 -41 45 -92 45 -153c0 -62 -17 -116 -48 -158l93 -93c-23 -23 -46 -47 -70 -70c-32 31 -64 63 -96 95c-42 -28 -93 -43 -150 -43c-54 0 -103 14 -151 45c-32 -33 -65 -65 -98 -97c-23 23 -46 47 -70 70c32 32 63 64 95 96c-29 40 -45 93 -45 155
c0 58 15 109 43 150l-93 93c24 23 48 47 71 70c31 -31 63 -62 94 -93c43 29 95 46 154 46c58 0 111 -16 153 -45c31 31 61 62 92 92c24 -23 48 -47 71 -70zM461 459c-87 0 -145 -69 -145 -150c0 -84 58 -152 145 -152c88 0 145 68 145 152c0 81 -58 150 -145 150z" />
    <glyph glyph-name="quotesingle" unicode="'" horiz-adv-x="282" 
d="M90 444v264h102v-264h-102z" />
    <glyph glyph-name="quotedblleft" unicode="&#x201c;" horiz-adv-x="465" 
d="M228 708l-70 -264h-116l85 264h101zM423 708l-70 -264h-116l85 264h101z" />
    <glyph glyph-name="guillemotleft" unicode="&#xab;" horiz-adv-x="519" 
d="M257 421l-115 -173l116 -175l-76 -51l-152 226l152 224zM480 421l-115 -173l116 -175l-76 -51l-152 226l152 224z" />
    <glyph glyph-name="guilsinglleft" unicode="&#x2039;" horiz-adv-x="296" 
d="M257 421l-115 -173l116 -175l-76 -51l-152 226l152 224z" />
    <glyph glyph-name="guilsinglright" unicode="&#x203a;" horiz-adv-x="296" 
d="M39 73l115 173l-116 175l76 51l152 -226l-152 -224z" />
    <glyph glyph-name="endash" unicode="&#x2013;" horiz-adv-x="400" 
d="M370 292v-92h-340v92h340z" />
    <glyph glyph-name="dagger" unicode="&#x2020;" horiz-adv-x="593" 
d="M353 708v-203h199v-96h-199v-535h-114v535h-198v96h198v203h114z" />
    <glyph glyph-name="daggerdbl" unicode="&#x2021;" horiz-adv-x="593" 
d="M353 708v-185h193v-96h-193v-271h193v-96h-193v-186h-114v186h-192v96h192v271h-192v96h192v185h114z" />
    <glyph glyph-name="periodcentered" unicode="&#xb7;" 
d="M50 291c0 43 36 78 80 78c43 0 80 -33 80 -76s-36 -78 -80 -78c-42 0 -80 33 -80 76z" />
    <glyph glyph-name="paragraph" unicode="&#xb6;" horiz-adv-x="600" 
d="M246 -126v464c-130 0 -215 77 -215 182c0 134 94 188 233 188h269v-834h-90v762h-107v-762h-90z" />
    <glyph glyph-name="bullet" unicode="&#x2022;" horiz-adv-x="500" 
d="M73 354c0 98 79 177 177 177s177 -79 177 -177s-79 -177 -177 -177s-177 79 -177 177z" />
    <glyph glyph-name="quotesinglbase" unicode="&#x201a;" horiz-adv-x="270" 
d="M42 -126l70 264h116l-85 -264h-101z" />
    <glyph glyph-name="quotedblbase" unicode="&#x201e;" horiz-adv-x="465" 
d="M237 -126l70 264h116l-85 -264h-101zM42 -126l70 264h116l-85 -264h-101z" />
    <glyph glyph-name="quotedblright" unicode="&#x201d;" horiz-adv-x="465" 
d="M237 444l70 264h116l-85 -264h-101zM42 444l70 264h116l-85 -264h-101z" />
    <glyph glyph-name="guillemotright" unicode="&#xbb;" horiz-adv-x="519" 
d="M262 73l115 173l-116 175l76 51l152 -226l-152 -224zM39 73l115 173l-116 175l76 51l152 -226l-152 -224z" />
    <glyph glyph-name="ellipsis" unicode="&#x2026;" horiz-adv-x="1000" 
d="M87 70c0 43 36 78 80 78c43 0 80 -33 80 -76s-36 -78 -80 -78c-42 0 -80 33 -80 76zM420 70c0 43 36 78 80 78c43 0 80 -33 80 -76s-36 -78 -80 -78c-42 0 -80 33 -80 76zM753 70c0 43 36 78 80 78c43 0 80 -33 80 -76s-36 -78 -80 -78c-42 0 -80 33 -80 76z" />
    <glyph glyph-name="perthousand" unicode="&#x2030;" horiz-adv-x="1230" 
d="M443 165c0 97 79 176 176 176s177 -79 177 -176s-80 -177 -177 -177s-176 80 -176 177zM533 165c0 -50 36 -87 86 -87s87 37 87 87s-37 86 -87 86s-86 -36 -86 -86zM839 165c0 97 79 176 176 176s177 -79 177 -176s-80 -177 -177 -177s-176 80 -176 177zM929 165
c0 -50 36 -87 86 -87s87 37 87 87s-37 86 -87 86s-86 -36 -86 -86zM39 544c0 97 79 176 176 176s177 -79 177 -176s-80 -177 -177 -177s-176 80 -176 177zM129 544c0 -50 36 -87 86 -87s87 37 87 87s-37 86 -87 86s-86 -36 -86 -86zM166 6l416 734l83 -38l-416 -734z" />
    <glyph glyph-name="questiondown" unicode="&#xbf;" horiz-adv-x="519" 
d="M195 285h118v-38c0 -64 -16 -98 -66 -146l-45 -43c-25 -23 -46 -49 -46 -89c0 -52 35 -92 94 -92c62 0 100 50 102 104l123 -11c-15 -127 -110 -202 -233 -202c-115 0 -213 67 -213 193c0 85 38 123 100 177c52 46 66 63 66 121v26zM333 424c0 -43 -36 -78 -80 -78
c-43 0 -80 33 -80 76s36 78 80 78c42 0 80 -33 80 -76z" />
    <glyph glyph-name="grave" unicode="`" 
d="M78 708l99 -144h-94l-141 144h136z" />
    <glyph glyph-name="acute" unicode="&#xb4;" 
d="M83 564l99 144h136l-141 -144h-94z" />
    <glyph glyph-name="circumflex" unicode="&#x2c6;" 
d="M312 564h-114l-69 90l-69 -90h-112l115 144h135z" />
    <glyph glyph-name="tilde" unicode="&#x2dc;" 
d="M12 568h-66c11 64 37 127 112 127c27 0 55 -8 79 -18c26 -11 49 -19 65 -19c27 0 39 20 46 42h66c-11 -64 -37 -127 -112 -127c-28 0 -57 9 -82 20c-24 11 -46 18 -62 18c-27 0 -39 -21 -46 -43z" />
    <glyph glyph-name="macron" unicode="&#xaf;" 
d="M290 673v-78h-320v78h320z" />
    <glyph glyph-name="breve" unicode="&#x2d8;" 
d="M-40 708h67c9 -50 52 -66 103 -66c57 0 90 10 104 66h66c-10 -98 -76 -144 -171 -144s-163 44 -169 144z" />
    <glyph glyph-name="dotaccent" unicode="&#x2d9;" 
d="M54 643c0 38 32 72 76 72s78 -31 78 -72s-34 -72 -78 -72s-76 34 -76 72z" />
    <glyph glyph-name="dieresis" unicode="&#xa8;" 
d="M-40 644c0 37 30 70 71 70s73 -30 73 -70s-32 -70 -73 -70s-71 33 -71 70zM156 644c0 37 30 70 71 70s73 -30 73 -70s-32 -70 -73 -70s-71 33 -71 70z" />
    <glyph glyph-name="ring" unicode="&#x2da;" 
d="M235 655c0 -59 -46 -102 -105 -102s-105 43 -105 101c0 59 45 103 105 103c59 0 105 -43 105 -102zM189 655c0 33 -26 57 -59 57c-34 0 -59 -25 -59 -58c0 -32 26 -56 59 -56s59 24 59 57z" />
    <glyph glyph-name="cedilla" unicode="&#xb8;" 
d="M178 0l-45 -64c8 1 14 1 19 1c50 0 105 -14 105 -83c0 -73 -76 -94 -136 -94c-40 0 -82 11 -110 26l23 48c25 -13 54 -20 82 -20c22 0 57 6 57 41c0 30 -32 36 -53 36c-11 0 -27 -2 -39 -6l-23 25l62 90h58z" />
    <glyph glyph-name="hungarumlaut" unicode="&#x2dd;" 
d="M-20 564l99 144h136l-141 -144h-94zM185 564l99 144h136l-141 -144h-94z" />
    <glyph glyph-name="ogonek" unicode="&#x2db;" 
d="M177 -147l25 -49c-28 -22 -63 -38 -100 -38c-53 0 -103 31 -103 89c0 57 57 118 100 151h61c-31 -27 -83 -84 -83 -128c0 -25 21 -46 46 -46c19 0 40 9 54 21z" />
    <glyph glyph-name="caron" unicode="&#x2c7;" 
d="M-51 708h114l69 -90l69 90h110l-115 -144h-133z" />
    <glyph glyph-name="emdash" unicode="&#x2014;" horiz-adv-x="600" 
d="M570 292v-92h-540v92h540z" />
    <glyph glyph-name="AE" unicode="&#xc6;" horiz-adv-x="1046" 
d="M529 0v186h-268l-114 -186h-153l453 708h536v-110h-328v-180h310v-106h-310v-200h346v-112h-472zM327 294h202v304h-15z" />
    <glyph glyph-name="ordfeminine" unicode="&#xaa;" horiz-adv-x="380" 
d="M244 431v30h-1c-13 -22 -48 -37 -89 -37c-53 0 -105 29 -105 86c0 93 106 100 189 100v6c0 30 -26 42 -60 42c-27 0 -53 -13 -69 -31l-44 52c30 30 76 44 120 44c103 0 132 -56 132 -118v-174h-73zM238 544v13h-14c-34 0 -92 -5 -92 -39c0 -23 22 -32 43 -32
c41 0 63 24 63 58z" />
    <glyph glyph-name="Lslash" unicode="&#x141;" horiz-adv-x="511" 
d="M78 0v201l-70 -62v110l70 62v397h126v-300l206 181v-109l-206 -182v-186h301v-112h-427z" />
    <glyph glyph-name="Oslash" unicode="&#xd8;" horiz-adv-x="849" 
d="M44 356c0 227 161 370 379 370c86 0 164 -22 225 -62l85 93l49 -43l-83 -91c67 -65 106 -156 106 -267c0 -221 -161 -370 -382 -374c-94 0 -176 27 -240 77l-85 -92l-50 43l87 94c-58 61 -91 151 -91 252zM674 356c0 68 -18 128 -57 174l-352 -383c39 -36 94 -55 159 -55
c147 0 250 110 250 264zM175 356c0 -65 14 -116 45 -159l349 378c-35 27 -86 43 -145 43c-151 0 -249 -113 -249 -262z" />
    <glyph glyph-name="OE" unicode="&#x152;" horiz-adv-x="1027" 
d="M455 112h55v486h-55c-130 0 -276 -41 -276 -244c0 -191 146 -242 276 -242zM435 708h529v-110h-328v-180h310v-106h-310v-200h346v-112h-547c-185 0 -391 106 -391 354c0 266 206 354 391 354z" />
    <glyph glyph-name="ordmasculine" unicode="&#xba;" horiz-adv-x="380" 
d="M342 574c0 -86 -64 -148 -152 -148s-152 62 -152 148c0 87 64 148 152 148s152 -61 152 -148zM260 574c0 40 -24 75 -70 75s-69 -35 -69 -75c0 -39 23 -75 69 -75s70 36 70 75z" />
    <glyph glyph-name="ae" unicode="&#xe6;" horiz-adv-x="887" 
d="M611 494c134 0 232 -87 232 -260c0 -11 0 -21 -1 -32h-365c8 -70 67 -118 137 -118c60 0 100 25 127 63l79 -65c-47 -64 -115 -96 -206 -96c-86 0 -152 35 -190 96c-28 -52 -87 -94 -201 -94c-81 0 -185 42 -185 149c0 134 153 151 330 151v10c0 72 -43 102 -109 102
c-48 0 -101 -24 -132 -55l-61 73c53 50 129 76 202 76c83 0 137 -40 163 -82c35 48 97 82 180 82zM368 186v16h-27c-113 0 -183 -9 -183 -63c0 -46 43 -60 84 -60c82 0 126 40 126 107zM477 288h246c0 62 -35 116 -113 116c-71 0 -128 -49 -133 -116z" />
    <glyph glyph-name="dotlessi" unicode="&#x131;" horiz-adv-x="268" 
d="M74 0v480h120v-480h-120z" />
    <glyph glyph-name="lslash" unicode="&#x142;" horiz-adv-x="268" 
d="M74 0v298l-69 -69v109l69 69v349h120v-255l69 69v-107l-69 -68v-395h-120z" />
    <glyph glyph-name="oslash" unicode="&#xf8;" horiz-adv-x="610" 
d="M184 156l207 213c-21 18 -53 31 -86 31c-98 0 -143 -86 -143 -161c0 -29 7 -63 22 -83zM427 326l-209 -212c22 -21 54 -31 87 -31c102 0 143 84 143 159c0 30 -7 62 -21 84zM533 516l42 -40l-69 -71c38 -44 60 -100 60 -165c0 -151 -116 -254 -261 -254
c-61 0 -117 18 -159 51l-70 -71l-40 41l67 68c-37 42 -59 99 -59 165c0 151 116 254 261 254c61 0 117 -18 158 -50z" />
    <glyph glyph-name="oe" unicode="&#x153;" horiz-adv-x="959" 
d="M683 494c134 0 232 -87 232 -260c0 -11 0 -21 -1 -32h-365c8 -70 67 -118 137 -118c60 0 100 25 127 63l79 -65c-47 -64 -115 -96 -206 -96c-85 0 -155 36 -195 91c-40 -54 -109 -91 -190 -91c-145 0 -257 105 -257 256s112 252 257 252c81 0 153 -38 193 -93
c41 53 107 93 189 93zM166 242c0 -75 44 -156 139 -156s139 81 139 156s-44 154 -139 154s-139 -79 -139 -154zM549 288h246c0 62 -35 116 -113 116c-71 0 -128 -49 -133 -116z" />
    <glyph glyph-name="germandbls" unicode="&#xdf;" horiz-adv-x="627" 
d="M72 0v507c0 138 69 261 244 261c126 0 214 -85 214 -195c0 -69 -46 -133 -107 -149v-2c101 -17 164 -96 164 -200c0 -137 -95 -234 -247 -234c-28 0 -56 3 -87 11v101c18 -6 50 -10 70 -10c84 0 141 53 141 138c0 94 -70 136 -154 136h-13v102h15c59 0 99 38 99 96
c0 50 -31 101 -100 101c-96 0 -119 -90 -119 -162v-501h-120z" />
    <glyph glyph-name="ydieresis.sc" horiz-adv-x="510" 
d="M194 0v221l-202 321h143l123 -219l122 219h138l-202 -321v-221h-122zM88 674c0 37 30 70 71 70s73 -30 73 -70s-32 -70 -73 -70s-71 33 -71 70zM284 674c0 37 30 70 71 70s73 -30 73 -70s-32 -70 -73 -70s-71 33 -71 70z" />
    <glyph glyph-name="n.sc" horiz-adv-x="634" 
d="M76 0v542h148l215 -374h2v374h117v-542h-148l-215 375h-2v-375h-117z" />
    <glyph glyph-name="multiply" unicode="&#xd7;" horiz-adv-x="666" 
d="M150 557l183 -183l182 182l70 -70l-181 -181l185 -186l-74 -74l-183 181l-181 -181l-74 73l185 182l-184 186z" />
    <glyph glyph-name="greaterequal" unicode="&#x2265;" horiz-adv-x="666" 
d="M80 144v112l359 112l-359 118v113l506 -177v-108zM80 4v107h506v-107h-506z" />
    <glyph glyph-name="uhungarumlaut" unicode="&#x171;" horiz-adv-x="582" 
d="M510 480v-480h-114v77h-2c-21 -48 -78 -91 -149 -91c-125 0 -177 96 -177 194v300h120v-266c0 -57 13 -128 90 -128c76 0 112 66 112 130v264h120zM134 564l99 144h136l-141 -144h-94zM339 564l99 144h136l-141 -144h-94z" />
    <glyph glyph-name="ograve" unicode="&#xf2;" horiz-adv-x="610" 
d="M44 242c0 151 116 252 261 252s261 -101 261 -252s-116 -256 -261 -256s-261 105 -261 256zM166 242c0 -75 44 -156 139 -156s139 81 139 156s-44 154 -139 154s-139 -79 -139 -154zM280 708l99 -144h-94l-141 144h136z" />
    <glyph glyph-name="umacron.sc" horiz-adv-x="595" 
d="M525 542v-339c0 -138 -102 -217 -228 -217s-227 79 -227 217v339h122v-330c0 -66 34 -116 105 -116c72 0 106 50 106 116v330h122zM456 703v-78h-320v78h320z" />
    <glyph glyph-name="radical" unicode="&#x221a;" horiz-adv-x="537" 
d="M549 786l-211 -1000h-106l-152 317l-51 -25l-41 90l148 68l129 -273l168 823h116z" />
    <glyph glyph-name="notequal" unicode="&#x2260;" horiz-adv-x="666" 
d="M586 162h-264l-74 -144l-88 45l50 99h-130v102h181l38 78h-219v102h270l72 143l90 -44l-51 -99h125v-102h-176l-38 -78h214v-102z" />
    <glyph glyph-name="omacron" unicode="&#x14d;" horiz-adv-x="610" 
d="M44 242c0 151 116 252 261 252s261 -101 261 -252s-116 -256 -261 -256s-261 105 -261 256zM166 242c0 -75 44 -156 139 -156s139 81 139 156s-44 154 -139 154s-139 -79 -139 -154zM465 673v-78h-320v78h320z" />
    <glyph glyph-name="ohungarumlaut.sc" horiz-adv-x="684" 
d="M44 273c0 173 129 283 297 283c170 0 299 -110 299 -283c0 -169 -129 -287 -299 -287c-168 0 -297 118 -297 287zM176 273c0 -107 67 -175 165 -175c99 0 166 68 166 175c0 102 -66 174 -166 174c-99 0 -165 -72 -165 -174zM197 594l99 144h136l-141 -144h-94zM402 594
l99 144h136l-141 -144h-94z" />
    <glyph glyph-name="iogonek.sc" horiz-adv-x="274" 
d="M76 0v542h122v-542h-122zM215 -153l25 -49c-28 -22 -63 -38 -100 -38c-53 0 -103 31 -103 89c0 57 57 118 100 151h61c-31 -27 -83 -84 -83 -128c0 -25 21 -46 46 -46c19 0 40 9 54 21z" />
    <glyph glyph-name="ohungarumlaut" unicode="&#x151;" horiz-adv-x="610" 
d="M44 242c0 151 116 252 261 252s261 -101 261 -252s-116 -256 -261 -256s-261 105 -261 256zM166 242c0 -75 44 -156 139 -156s139 81 139 156s-44 154 -139 154s-139 -79 -139 -154zM159 564l99 144h136l-141 -144h-94zM364 564l99 144h136l-141 -144h-94z" />
    <glyph glyph-name="uniF8FF" unicode="&#xf8ff;" horiz-adv-x="512" 
d="M222 117h56v67h-56v-67zM225 234h46c0 35 2 59 6 72s18 30 43 52c51 47 63 77 63 120c0 79 -53 131 -124 131c-72 0 -126 -42 -135 -137l50 -8c8 68 41 95 82 95s76 -37 76 -85c0 -25 -7 -42 -50 -83c-22 -22 -37 -42 -46 -59s-13 -44 -13 -81zM462 50h-412v617h412v-617
zM512 718h-512v-718h512v718z" />
    <glyph glyph-name="p.sc" horiz-adv-x="500" 
d="M76 0v542h184c132 0 210 -56 210 -163c0 -113 -79 -175 -213 -175h-62v-204h-119zM195 300h52c63 0 101 24 101 75c0 45 -28 68 -93 68h-60v-143z" />
    <glyph glyph-name="macron.sc" 
d="M290 703v-78h-320v78h320z" />
    <glyph glyph-name="otilde" unicode="&#xf5;" horiz-adv-x="610" 
d="M44 242c0 151 116 252 261 252s261 -101 261 -252s-116 -256 -261 -256s-261 105 -261 256zM166 242c0 -75 44 -156 139 -156s139 81 139 156s-44 154 -139 154s-139 -79 -139 -154zM189 568h-66c11 64 37 127 112 127c27 0 55 -8 79 -18c26 -11 49 -19 65 -19
c27 0 39 20 46 42h66c-11 -64 -37 -127 -112 -127c-28 0 -57 9 -82 20c-24 11 -46 18 -62 18c-27 0 -39 -21 -46 -43z" />
    <glyph glyph-name="ugrave.sc" horiz-adv-x="595" 
d="M525 542v-339c0 -138 -102 -217 -228 -217s-227 79 -227 217v339h122v-330c0 -66 34 -116 105 -116c72 0 106 50 106 116v330h122zM254 738l99 -144h-94l-141 144h136z" />
    <glyph glyph-name="ntilde" unicode="&#xf1;" horiz-adv-x="582" 
d="M72 0v480h114v-77h2c21 48 78 91 149 91c125 0 177 -96 177 -194v-300h-120v266c0 57 -13 128 -90 128c-76 0 -112 -66 -112 -130v-264h-120zM175 568h-66c11 64 37 127 112 127c27 0 55 -8 79 -18c26 -11 49 -19 65 -19c27 0 39 20 46 42h66c-11 -64 -37 -127 -112 -127
c-28 0 -57 9 -82 20c-24 11 -46 18 -62 18c-27 0 -39 -21 -46 -43z" />
    <glyph glyph-name="odieresis" unicode="&#xf6;" horiz-adv-x="610" 
d="M44 242c0 151 116 252 261 252s261 -101 261 -252s-116 -256 -261 -256s-261 105 -261 256zM166 242c0 -75 44 -156 139 -156s139 81 139 156s-44 154 -139 154s-139 -79 -139 -154zM137 644c0 37 30 70 71 70s73 -30 73 -70s-32 -70 -73 -70s-71 33 -71 70zM333 644
c0 37 30 70 71 70s73 -30 73 -70s-32 -70 -73 -70s-71 33 -71 70z" />
    <glyph glyph-name="jcircumflex" unicode="&#x135;" horiz-adv-x="268" 
d="M74 480h120v-509c0 -115 -31 -211 -174 -211c-20 0 -42 3 -54 6l10 102c11 -3 24 -4 33 -4c57 0 65 47 65 102v514zM316 564h-114l-69 90l-69 -90h-112l115 144h135z" />
    <glyph glyph-name="oe.sc" horiz-adv-x="819" 
d="M761 542v-101h-252v-114h239v-96h-239v-127h265v-104h-432c-167 0 -296 104 -296 272c0 171 129 270 296 270h419zM178 272c0 -106 66 -162 164 -162h45v324h-45c-99 0 -164 -61 -164 -162z" />
    <glyph glyph-name="ncaron" unicode="&#x148;" horiz-adv-x="582" 
d="M72 0v480h114v-77h2c21 48 78 91 149 91c125 0 177 -96 177 -194v-300h-120v266c0 57 -13 128 -90 128c-76 0 -112 -66 -112 -130v-264h-120zM107 708h114l69 -90l69 90h110l-115 -144h-133z" />
    <glyph glyph-name="idieresis" unicode="&#xef;" horiz-adv-x="268" 
d="M74 0v480h120v-480h-120zM-35 644c0 37 30 70 71 70s73 -30 73 -70s-32 -70 -73 -70s-71 33 -71 70zM161 644c0 37 30 70 71 70s73 -30 73 -70s-32 -70 -73 -70s-71 33 -71 70z" />
    <glyph glyph-name="udieresis.sc" horiz-adv-x="595" 
d="M525 542v-339c0 -138 -102 -217 -228 -217s-227 79 -227 217v339h122v-330c0 -66 34 -116 105 -116c72 0 106 50 106 116v330h122zM129 674c0 37 30 70 71 70s73 -30 73 -70s-32 -70 -73 -70s-71 33 -71 70zM325 674c0 37 30 70 71 70s73 -30 73 -70s-32 -70 -73 -70
s-71 33 -71 70z" />
    <glyph glyph-name="ocircumflex" unicode="&#xf4;" horiz-adv-x="610" 
d="M44 242c0 151 116 252 261 252s261 -101 261 -252s-116 -256 -261 -256s-261 105 -261 256zM166 242c0 -75 44 -156 139 -156s139 81 139 156s-44 154 -139 154s-139 -79 -139 -154zM489 564h-114l-69 90l-69 -90h-112l115 144h135z" />
    <glyph glyph-name="onehalf" unicode="&#xbd;" horiz-adv-x="900" 
d="M186 6l416 734l78 -38l-416 -734zM771 179l-100 -97h169v-82h-291v76l162 161c21 21 36 43 36 70c0 30 -23 49 -53 49c-34 0 -58 -28 -61 -67l-88 12c9 78 68 135 149 135c76 0 146 -43 146 -128c0 -55 -32 -93 -69 -129zM95 535l-53 62l137 111h83v-429h-94v317z" />
    <glyph glyph-name="grave.sc" 
d="M78 738l99 -144h-94l-141 144h136z" />
    <glyph glyph-name="hungarumlaut.cap" 
d="M-20 764l99 144h136l-141 -144h-94zM185 764l99 144h136l-141 -144h-94z" />
    <glyph glyph-name="utilde" unicode="&#x169;" horiz-adv-x="582" 
d="M510 480v-480h-114v77h-2c-21 -48 -78 -91 -149 -91c-125 0 -177 96 -177 194v300h120v-266c0 -57 13 -128 90 -128c76 0 112 66 112 130v264h120zM173 568h-66c11 64 37 127 112 127c27 0 55 -8 79 -18c26 -11 49 -19 65 -19c27 0 39 20 46 42h66
c-11 -64 -37 -127 -112 -127c-28 0 -57 9 -82 20c-24 11 -46 18 -62 18c-27 0 -39 -21 -46 -43z" />
    <glyph glyph-name="otilde.sc" horiz-adv-x="684" 
d="M44 273c0 173 129 283 297 283c170 0 299 -110 299 -283c0 -169 -129 -287 -299 -287c-168 0 -297 118 -297 287zM176 273c0 -107 67 -175 165 -175c99 0 166 68 166 175c0 102 -66 174 -166 174c-99 0 -165 -72 -165 -174zM222 598h-66c6 32 15 64 32 88
c17 23 43 39 80 39c27 0 55 -8 79 -18c26 -11 49 -19 65 -19c27 0 39 20 46 42h66c-11 -64 -37 -127 -112 -127c-28 0 -57 9 -82 20c-24 11 -46 18 -62 18c-27 0 -39 -21 -46 -43z" />
    <glyph glyph-name="product" unicode="&#x220f;" horiz-adv-x="741" 
d="M679 -214h-114v897h-389v-897h-114v1000h617v-1000z" />
    <glyph glyph-name="twosuperior" unicode="&#xb2;" horiz-adv-x="400" 
d="M278 462l-100 -97h169v-82h-291v76l162 161c21 21 36 43 36 70c0 30 -23 49 -53 49c-34 0 -58 -28 -61 -67l-88 12c9 78 68 135 149 135c76 0 146 -43 146 -128c0 -55 -32 -93 -69 -129z" />
    <glyph glyph-name="imacron.sc" horiz-adv-x="274" 
d="M76 0v542h122v-542h-122zM299 703v-78h-320v78h320z" />
    <glyph glyph-name="lacute" unicode="&#x13a;" horiz-adv-x="268" 
d="M74 0v756h120v-756h-120zM74 792l99 144h136l-141 -144h-94z" />
    <glyph glyph-name="ocircumflex.sc" horiz-adv-x="684" 
d="M44 273c0 173 129 283 297 283c170 0 299 -110 299 -283c0 -169 -129 -287 -299 -287c-168 0 -297 118 -297 287zM176 273c0 -107 67 -175 165 -175c99 0 166 68 166 175c0 102 -66 174 -166 174c-99 0 -165 -72 -165 -174zM522 594h-114l-69 90l-69 -90h-112l115 144
h135z" />
    <glyph glyph-name="perthousand.sc" horiz-adv-x="1051" 
d="M402 129c0 79 64 142 143 142c78 0 142 -63 142 -142c0 -78 -64 -142 -142 -142c-79 0 -143 64 -143 142zM603 129c0 33 -25 57 -58 57s-58 -24 -58 -57c0 -34 25 -58 58 -58s58 24 58 58zM38 409c0 78 64 142 142 142s142 -64 142 -142c0 -79 -64 -141 -142 -141
s-142 62 -142 141zM238 409c0 33 -25 57 -58 57s-58 -24 -58 -57c0 -34 25 -58 58 -58s58 24 58 58zM732 129c0 79 64 142 143 142c78 0 142 -63 142 -142c0 -78 -64 -142 -142 -142c-79 0 -143 64 -143 142zM933 129c0 33 -25 57 -58 57s-58 -24 -58 -57
c0 -34 25 -58 58 -58s58 24 58 58zM165 11l311 546l78 -39l-311 -546z" />
    <glyph glyph-name="napostrophe.sc" horiz-adv-x="730" 
d="M172 0v542h148l215 -374h2v374h117v-542h-148l-215 375h-2v-375h-117zM-28 347l65 195h106l-80 -195h-91z" />
    <glyph glyph-name="ij.sc" horiz-adv-x="686" 
d="M76 0v542h122v-542h-122zM620 542v-370c0 -79 -30 -186 -171 -186c-91 0 -143 52 -168 134l113 32c13 -42 34 -56 54 -56c36 0 50 25 50 81v365h122z" />
    <glyph glyph-name="uni03BC" unicode="&#x3bc;" horiz-adv-x="574" 
d="M68 480h120v-243c0 -53 4 -141 88 -141c79 0 110 58 110 122v262h120v-480h-114v77h-2c-22 -48 -60 -89 -137 -89c-24 0 -52 8 -65 24v-240h-120v708z" />
    <glyph glyph-name="percent.sc" horiz-adv-x="725" 
d="M402 129c0 79 64 142 143 142c78 0 142 -63 142 -142c0 -78 -64 -142 -142 -142c-79 0 -143 64 -143 142zM603 129c0 33 -25 57 -58 57s-58 -24 -58 -57c0 -34 25 -58 58 -58s58 24 58 58zM38 409c0 78 64 142 142 142s142 -64 142 -142c0 -79 -64 -141 -142 -141
s-142 62 -142 141zM238 409c0 33 -25 57 -58 57s-58 -24 -58 -57c0 -34 25 -58 58 -58s58 24 58 58zM165 11l311 546l78 -39l-311 -546z" />
    <glyph glyph-name="obreve.sc" horiz-adv-x="684" 
d="M44 273c0 173 129 283 297 283c170 0 299 -110 299 -283c0 -169 -129 -287 -299 -287c-168 0 -297 118 -297 287zM176 273c0 -107 67 -175 165 -175c99 0 166 68 166 175c0 102 -66 174 -166 174c-99 0 -165 -72 -165 -174zM172 738h67c9 -50 52 -66 103 -66
c57 0 90 10 104 66h66c-10 -98 -76 -144 -171 -144s-163 44 -169 144z" />
    <glyph glyph-name="summation" unicode="&#x2211;" horiz-adv-x="648" 
d="M624 -214h-599v89l303 417l-290 405v89h573v-103h-422l275 -390l-293 -404h453v-103z" />
    <glyph glyph-name="racute" unicode="&#x155;" horiz-adv-x="364" 
d="M72 0v480h115v-80h2c26 55 77 94 140 94c9 0 21 -1 29 -3v-110c-16 4 -26 5 -37 5c-108 0 -129 -94 -129 -129v-257h-120zM103 564l99 144h136l-141 -144h-94z" />
    <glyph glyph-name="two.onum" horiz-adv-x="561" 
d="M502 0h-437v100l56 35c169 108 253 160 253 238c0 51 -35 88 -104 88c-53 0 -98 -31 -124 -79l-93 51c43 78 123 128 222 128c129 0 220 -60 220 -180c0 -116 -107 -185 -217 -255l-38 -23v-3h262v-100z" />
    <glyph glyph-name="trademark" unicode="&#x2122;" horiz-adv-x="1000" 
d="M162 296v322h-122v90h346v-90h-122v-322h-102zM465 296v412h142l98 -268l98 268h142v-412h-102v268h-2l-101 -268h-70l-101 268h-2v-268h-102z" />
    <glyph glyph-name="Uacute" unicode="&#xda;" horiz-adv-x="714" 
d="M642 708v-448c0 -171 -123 -278 -285 -278s-285 107 -285 278v448h126v-443c0 -82 38 -170 159 -170s159 88 159 170v443h126zM291 764l99 144h136l-141 -144h-94z" />
    <glyph glyph-name="lcommaaccent" unicode="&#x13c;" horiz-adv-x="268" 
d="M74 0v756h120v-756h-120zM29 -240l65 195h106l-80 -195h-91z" />
    <glyph glyph-name="imacron" unicode="&#x12b;" horiz-adv-x="268" 
d="M74 0v480h120v-480h-120zM296 673v-78h-320v78h320z" />
    <glyph glyph-name="nine.sc" horiz-adv-x="516" 
d="M281 0h-144l141 200l-2 2c-16 -6 -34 -9 -50 -9c-95 0 -173 63 -173 171c0 116 92 192 206 192c116 0 205 -79 205 -191c0 -63 -25 -121 -65 -182zM344 369c0 54 -40 85 -87 85s-85 -33 -85 -87c0 -53 39 -86 86 -86s86 33 86 88z" />
    <glyph glyph-name="uni021B" unicode="&#x21b;" horiz-adv-x="340" 
d="M87 384h-84v96h84v139h118v-139h120v-96h-120v-223c0 -43 10 -74 63 -74c16 0 37 3 51 10l4 -94c-21 -8 -53 -13 -80 -13c-127 0 -156 78 -156 170v224zM98 -240l65 195h106l-80 -195h-91z" />
    <glyph glyph-name="oacute.sc" horiz-adv-x="684" 
d="M44 273c0 173 129 283 297 283c170 0 299 -110 299 -283c0 -169 -129 -287 -299 -287c-168 0 -297 118 -297 287zM176 273c0 -107 67 -175 165 -175c99 0 166 68 166 175c0 102 -66 174 -166 174c-99 0 -165 -72 -165 -174zM274 594l99 144h136l-141 -144h-94z" />
    <glyph glyph-name="idotaccent.sc" horiz-adv-x="274" 
d="M76 0v542h122v-542h-122zM54 673c0 38 32 72 76 72s78 -31 78 -72s-34 -72 -78 -72s-76 34 -76 72z" />
    <glyph glyph-name="Aring" unicode="&#xc5;" horiz-adv-x="706" 
d="M-8 0l308 708h109l305 -708h-144l-66 162h-307l-64 -162h-141zM240 270h220l-109 288zM458 855c0 -59 -46 -102 -105 -102s-105 43 -105 101c0 59 45 103 105 103c59 0 105 -43 105 -102zM412 855c0 33 -26 57 -59 57c-34 0 -59 -25 -59 -58c0 -32 26 -56 59 -56
s59 24 59 57z" />
    <glyph glyph-name="oacute" unicode="&#xf3;" horiz-adv-x="610" 
d="M44 242c0 151 116 252 261 252s261 -101 261 -252s-116 -256 -261 -256s-261 105 -261 256zM166 242c0 -75 44 -156 139 -156s139 81 139 156s-44 154 -139 154s-139 -79 -139 -154zM233 564l99 144h136l-141 -144h-94z" />
    <glyph glyph-name="ncommaaccent" unicode="&#x146;" horiz-adv-x="582" 
d="M72 0v480h114v-77h2c21 48 78 91 149 91c125 0 177 -96 177 -194v-300h-120v266c0 57 -13 128 -90 128c-76 0 -112 -66 -112 -130v-264h-120zM189 -240l65 195h106l-80 -195h-91z" />
    <glyph glyph-name="nacute" unicode="&#x144;" horiz-adv-x="582" 
d="M72 0v480h114v-77h2c21 48 78 91 149 91c125 0 177 -96 177 -194v-300h-120v266c0 57 -13 128 -90 128c-76 0 -112 -66 -112 -130v-264h-120zM217 564l99 144h136l-141 -144h-94z" />
    <glyph glyph-name="ucircumflex.sc" horiz-adv-x="595" 
d="M525 542v-339c0 -138 -102 -217 -228 -217s-227 79 -227 217v339h122v-330c0 -66 34 -116 105 -116c72 0 106 50 106 116v330h122zM481 594h-114l-69 90l-69 -90h-112l115 144h135z" />
    <glyph glyph-name="macron.cap" 
d="M290 873v-78h-320v78h320z" />
    <glyph glyph-name="oslash.sc" horiz-adv-x="684" 
d="M597 571l43 -40l-69 -70c44 -50 69 -113 69 -188c0 -170 -128 -287 -299 -287c-68 0 -127 18 -179 54l-69 -73l-41 41l67 69c-45 47 -75 116 -75 196c0 173 129 283 297 283c73 0 138 -21 188 -56zM170 273c0 -44 13 -83 31 -111l248 255c-28 22 -65 36 -108 36
c-103 0 -171 -75 -171 -180zM513 273c0 36 -9 70 -26 99l-244 -252c26 -19 61 -28 98 -28c102 0 172 71 172 181z" />
    <glyph glyph-name="iogonek" unicode="&#x12f;" horiz-adv-x="268" 
d="M74 0v480h120v-480h-19c-31 -29 -76 -81 -76 -122c0 -25 21 -46 46 -46c19 0 40 9 54 21l25 -49c-28 -22 -63 -38 -100 -38c-53 0 -103 31 -103 89c0 54 50 111 92 145h-39zM57 643c0 38 32 72 76 72s78 -31 78 -72s-34 -72 -78 -72s-76 34 -76 72z" />
    <glyph glyph-name="yacute.sc" horiz-adv-x="510" 
d="M194 0v221l-202 321h143l123 -219l122 219h138l-202 -321v-221h-122zM191 594l99 144h136l-141 -144h-94z" />
    <glyph glyph-name="hbar" unicode="&#x127;" horiz-adv-x="584" 
d="M364 645v-75h-170v-157h2c19 40 72 81 143 81c125 0 177 -96 177 -194v-300h-120v264c0 57 -12 127 -89 127c-76 0 -113 -65 -113 -129v-262h-120v570h-54v75h54v111h120v-111h170z" />
    <glyph glyph-name="uhungarumlaut.sc" horiz-adv-x="595" 
d="M525 542v-339c0 -138 -102 -217 -228 -217s-227 79 -227 217v339h122v-330c0 -66 34 -116 105 -116c72 0 106 50 106 116v330h122zM152 594l99 144h136l-141 -144h-94zM357 594l99 144h136l-141 -144h-94z" />
    <glyph glyph-name="omacron.sc" horiz-adv-x="684" 
d="M44 273c0 173 129 283 297 283c170 0 299 -110 299 -283c0 -169 -129 -287 -299 -287c-168 0 -297 118 -297 287zM176 273c0 -107 67 -175 165 -175c99 0 166 68 166 175c0 102 -66 174 -166 174c-99 0 -165 -72 -165 -174zM502 703v-78h-320v78h320z" />
    <glyph glyph-name="z.sc" horiz-adv-x="523" 
d="M50 0v98l276 345h-273v99h417v-101l-273 -341h276v-100h-423z" />
    <glyph glyph-name="questiondown.sc" horiz-adv-x="439" 
d="M298 474c0 -43 -34 -76 -78 -76c-43 0 -78 31 -78 74s34 76 78 76c42 0 78 -31 78 -74zM163 343h116v-17c0 -38 -19 -67 -47 -93l-33 -31c-22 -20 -31 -36 -31 -62c0 -22 17 -48 51 -48c35 0 55 24 58 61l120 -11c-12 -108 -88 -156 -188 -156c-113 0 -164 75 -164 147
c0 50 14 89 68 133c42 34 50 43 50 73v4z" />
    <glyph glyph-name="idieresis.sc" horiz-adv-x="274" 
d="M76 0v542h122v-542h-122zM-32 674c0 37 30 70 71 70s73 -30 73 -70s-32 -70 -73 -70s-71 33 -71 70zM164 674c0 37 30 70 71 70s73 -30 73 -70s-32 -70 -73 -70s-71 33 -71 70z" />
    <glyph glyph-name="one.sc" horiz-adv-x="516" 
d="M235 0v392l-98 -82l-70 80l186 152h101v-542h-119z" />
    <glyph glyph-name="question.sc" horiz-adv-x="439" 
d="M142 68c0 43 34 76 78 76c43 0 78 -31 78 -74s-34 -76 -78 -76c-42 0 -78 31 -78 74zM277 199h-116v17c0 38 19 67 47 93l33 31c22 20 31 36 31 62c0 22 -17 48 -51 48c-35 0 -55 -24 -58 -61l-120 11c12 108 88 156 188 156c113 0 164 -75 164 -147
c0 -50 -14 -89 -68 -133c-42 -34 -50 -43 -50 -73v-4z" />
    <glyph glyph-name="wcircumflex" unicode="&#x175;" horiz-adv-x="804" 
d="M171 0l-167 480h130l100 -344h2l103 344h128l104 -344h2l102 344h125l-166 -480h-122l-109 336h-2l-108 -336h-122zM586 564h-114l-69 90l-69 -90h-112l115 144h135z" />
    <glyph glyph-name="iacute.sc" horiz-adv-x="274" 
d="M76 0v542h122v-542h-122zM81 594l99 144h136l-141 -144h-94z" />
    <glyph glyph-name="three.sc" horiz-adv-x="516" 
d="M189 236v92h36c48 0 96 13 96 69c0 35 -26 61 -64 61c-33 0 -63 -22 -74 -65l-112 27c22 84 98 136 189 136c99 0 181 -51 181 -151c0 -53 -26 -98 -82 -120v-3c72 -20 96 -65 96 -125c0 -115 -101 -171 -196 -171s-173 37 -209 137l113 35c14 -47 44 -72 93 -72
c39 0 80 19 80 72c0 55 -55 78 -112 78h-35z" />
    <glyph glyph-name="Ubreve" unicode="&#x16c;" horiz-adv-x="714" 
d="M642 708v-448c0 -171 -123 -278 -285 -278s-285 107 -285 278v448h126v-443c0 -82 38 -170 159 -170s159 88 159 170v443h126zM186 908h67c9 -50 52 -66 103 -66c57 0 90 10 104 66h66c-10 -98 -76 -144 -171 -144s-163 44 -169 144z" />
    <glyph glyph-name="ordfeminine.sc" horiz-adv-x="380" 
d="M360 428h-88l-23 57h-119l-22 -57h-86l126 294h85zM228 542l-38 101l-38 -101h76z" />
    <glyph glyph-name="Ccircumflex" unicode="&#x108;" horiz-adv-x="696" 
d="M685 618l-96 -76c-37 51 -104 73 -161 73c-146 0 -245 -113 -245 -259c0 -154 94 -261 240 -261c76 0 136 33 172 82l101 -71c-62 -78 -154 -124 -274 -124c-221 0 -378 153 -378 374c0 227 166 370 384 370c92 0 201 -34 257 -108zM611 764h-114l-69 90l-69 -90h-112
l115 144h135z" />
    <glyph glyph-name="l.sc" horiz-adv-x="433" 
d="M76 0v542h122v-435h221v-107h-343z" />
    <glyph glyph-name="igrave" unicode="&#xec;" horiz-adv-x="268" 
d="M74 0v480h120v-480h-120zM94 708l99 -144h-94l-141 144h136z" />
    <glyph glyph-name="Cdotaccent" unicode="&#x10a;" horiz-adv-x="696" 
d="M685 618l-96 -76c-37 51 -104 73 -161 73c-146 0 -245 -113 -245 -259c0 -154 94 -261 240 -261c76 0 136 33 172 82l101 -71c-62 -78 -154 -124 -274 -124c-221 0 -378 153 -378 374c0 227 166 370 384 370c92 0 201 -34 257 -108zM349 843c0 38 32 72 76 72
s78 -31 78 -72s-34 -72 -78 -72s-76 34 -76 72z" />
    <glyph glyph-name="pi" unicode="&#x3c0;" horiz-adv-x="593" 
d="M580 13c-28 -13 -64 -20 -95 -20c-89 0 -104 56 -104 131v254h-183v-378h-117v378h-70v102h566v-102h-79v-237c0 -28 1 -58 38 -58c15 0 30 4 44 10v-80z" />
    <glyph glyph-name="umacron" unicode="&#x16b;" horiz-adv-x="582" 
d="M510 480v-480h-114v77h-2c-21 -48 -78 -91 -149 -91c-125 0 -177 96 -177 194v300h120v-266c0 -57 13 -128 90 -128c76 0 112 66 112 130v264h120zM450 673v-78h-320v78h320z" />
    <glyph glyph-name="Utilde" unicode="&#x168;" horiz-adv-x="714" 
d="M642 708v-448c0 -171 -123 -278 -285 -278s-285 107 -285 278v448h126v-443c0 -82 38 -170 159 -170s159 88 159 170v443h126zM243 768h-66c11 64 37 127 112 127c27 0 55 -8 79 -18c26 -11 49 -19 65 -19c27 0 39 20 46 42h66c-11 -64 -37 -127 -112 -127
c-28 0 -57 9 -82 20c-24 11 -46 18 -62 18c-27 0 -39 -21 -46 -43z" />
    <glyph glyph-name="scommaaccent.sc" horiz-adv-x="492" 
d="M448 474l-83 -79c-23 32 -66 59 -113 59c-41 0 -82 -15 -82 -56s39 -53 111 -71c76 -19 166 -55 166 -160c0 -131 -102 -181 -214 -181c-79 0 -162 31 -211 88l85 86c27 -38 76 -67 131 -67c38 0 82 14 82 61c0 45 -39 58 -117 77c-76 19 -152 52 -152 153
c0 120 103 172 204 172c74 0 151 -27 193 -82zM128 -240l65 195h106l-80 -195h-91z" />
    <glyph glyph-name="lessequal" unicode="&#x2264;" horiz-adv-x="666" 
d="M586 144l-506 170v108l506 177v-113l-359 -118l359 -112v-112zM586 4h-506v107h506v-107z" />
    <glyph glyph-name="uni00A0" unicode="&#xa0;" horiz-adv-x="250" 
 />
    <glyph glyph-name="uring.sc" horiz-adv-x="595" 
d="M525 542v-339c0 -138 -102 -217 -228 -217s-227 79 -227 217v339h122v-330c0 -66 34 -116 105 -116c72 0 106 50 106 116v330h122zM403 685c0 -59 -46 -102 -105 -102s-105 43 -105 101c0 59 45 103 105 103c59 0 105 -43 105 -102zM357 685c0 33 -26 57 -59 57
c-34 0 -59 -25 -59 -58c0 -32 26 -56 59 -56s59 24 59 57z" />
    <glyph glyph-name="Wcircumflex" unicode="&#x174;" horiz-adv-x="1004" 
d="M213 0l-207 708h138l137 -520h2l156 520h130l153 -520h2l140 520h134l-207 -708h-122l-166 531h-2l-166 -531h-122zM685 764h-114l-69 90l-69 -90h-112l115 144h135z" />
    <glyph glyph-name="i.sc" horiz-adv-x="274" 
d="M76 0v542h122v-542h-122z" />
    <glyph glyph-name="onesuperior" unicode="&#xb9;" horiz-adv-x="400" 
d="M95 535l-53 62l137 111h83v-429h-94v317z" />
    <glyph glyph-name="threequarters" unicode="&#xbe;" horiz-adv-x="900" 
d="M682 0v85h-190v74l179 270h97v-265h58v-79h-58v-85h-86zM682 164v149h-1l-96 -149h97zM186 6l416 734l78 -38l-416 -734zM148 469v71h28c37 0 75 14 75 57c0 28 -24 45 -53 45c-28 0 -49 -22 -56 -53l-86 21c18 64 76 110 145 110c80 0 142 -38 142 -118
c0 -39 -21 -74 -55 -93c42 -16 66 -52 66 -100c0 -91 -79 -132 -153 -132c-73 0 -135 32 -161 112l85 25c11 -33 34 -58 72 -58c32 0 66 16 66 57c0 46 -49 56 -88 56h-27z" />
    <glyph glyph-name="uni03A9" unicode="&#x3a9;" horiz-adv-x="759" 
d="M701 0h-276v189c102 20 157 108 157 208c0 119 -84 219 -207 219c-125 0 -209 -99 -209 -220c0 -104 52 -181 154 -207v-189h-274v106h172v32c-121 37 -172 143 -172 266c0 185 146 317 327 317c182 0 328 -127 328 -314c0 -125 -49 -232 -173 -269v-32h173v-106z" />
    <glyph glyph-name="Ucircumflex" unicode="&#xdb;" horiz-adv-x="714" 
d="M642 708v-448c0 -171 -123 -278 -285 -278s-285 107 -285 278v448h126v-443c0 -82 38 -170 159 -170s159 88 159 170v443h126zM541 764h-114l-69 90l-69 -90h-112l115 144h135z" />
    <glyph glyph-name="hcircumflex.sc" horiz-adv-x="619" 
d="M76 0v542h122v-213h223v213h122v-542h-122v228h-223v-228h-122zM492 594h-114l-69 90l-69 -90h-112l115 144h135z" />
    <glyph glyph-name="zcaron" unicode="&#x17e;" horiz-adv-x="482" 
d="M34 0v106l259 278h-247v96h390v-106l-260 -276h272v-98h-414zM65 708h114l69 -90l69 90h110l-115 -144h-133z" />
    <glyph glyph-name="ograve.sc" horiz-adv-x="684" 
d="M44 273c0 173 129 283 297 283c170 0 299 -110 299 -283c0 -169 -129 -287 -299 -287c-168 0 -297 118 -297 287zM176 273c0 -107 67 -175 165 -175c99 0 166 68 166 175c0 102 -66 174 -166 174c-99 0 -165 -72 -165 -174zM299 738l99 -144h-94l-141 144h136z" />
    <glyph glyph-name="Yacute" unicode="&#xdd;" horiz-adv-x="622" 
d="M249 0v307l-266 401h154l178 -298l180 298h146l-266 -401v-307h-126zM266 764l99 144h136l-141 -144h-94z" />
    <glyph glyph-name="ycircumflex.sc" horiz-adv-x="510" 
d="M194 0v221l-202 321h143l123 -219l122 219h138l-202 -321v-221h-122zM441 594h-114l-69 90l-69 -90h-112l115 144h135z" />
    <glyph glyph-name="o.sc" horiz-adv-x="684" 
d="M44 273c0 173 129 283 297 283c170 0 299 -110 299 -283c0 -169 -129 -287 -299 -287c-168 0 -297 118 -297 287zM176 273c0 -107 67 -175 165 -175c99 0 166 68 166 175c0 102 -66 174 -166 174c-99 0 -165 -72 -165 -174z" />
    <glyph glyph-name="tbar" unicode="&#x167;" horiz-adv-x="340" 
d="M305 294v-75h-100v-58c0 -43 10 -74 63 -74c16 0 37 3 51 10l4 -94c-21 -8 -53 -13 -80 -13c-127 0 -156 78 -156 170v59h-75v75h75v90h-84v96h84v139h118v-139h120v-96h-120v-90h100z" />
    <glyph glyph-name="icircumflex" unicode="&#xee;" horiz-adv-x="268" 
d="M74 0v480h120v-480h-120zM317 564h-114l-69 90l-69 -90h-112l115 144h135z" />
    <glyph glyph-name="itilde" unicode="&#x129;" horiz-adv-x="268" 
d="M74 0v480h120v-480h-120zM18 568h-66c11 64 37 127 112 127c27 0 55 -8 79 -18c26 -11 49 -19 65 -19c27 0 39 20 46 42h66c-11 -64 -37 -127 -112 -127c-28 0 -57 9 -82 20c-24 11 -46 18 -62 18c-27 0 -39 -21 -46 -43z" />
    <glyph glyph-name="scircumflex.sc" horiz-adv-x="492" 
d="M448 474l-83 -79c-23 32 -66 59 -113 59c-41 0 -82 -15 -82 -56s39 -53 111 -71c76 -19 166 -55 166 -160c0 -131 -102 -181 -214 -181c-79 0 -162 31 -211 88l85 86c27 -38 76 -67 131 -67c38 0 82 14 82 61c0 45 -39 58 -117 77c-76 19 -152 52 -152 153
c0 120 103 172 204 172c74 0 151 -27 193 -82zM436 594h-114l-69 90l-69 -90h-112l115 144h135z" />
    <glyph glyph-name="j.sc" horiz-adv-x="405" 
d="M339 542v-370c0 -79 -30 -186 -171 -186c-91 0 -143 52 -168 134l113 32c13 -42 34 -56 54 -56c36 0 50 25 50 81v365h122z" />
    <glyph glyph-name="scommaaccent" unicode="&#x219;" horiz-adv-x="444" 
d="M413 421l-78 -69c-21 28 -61 52 -105 52c-38 0 -77 -14 -77 -52c0 -37 37 -47 104 -63c71 -17 155 -49 155 -143c0 -117 -95 -160 -200 -160c-74 0 -151 28 -197 79l79 74c26 -34 71 -60 123 -60c35 0 77 14 77 57c0 40 -37 52 -110 69c-71 17 -142 46 -142 136
c0 107 96 153 191 153c69 0 141 -24 180 -73zM117 -240l65 195h106l-80 -195h-91z" />
    <glyph glyph-name="Atilde" unicode="&#xc3;" horiz-adv-x="706" 
d="M-8 0l308 708h109l305 -708h-144l-66 162h-307l-64 -162h-141zM240 270h220l-109 288zM236 768h-66c11 64 37 127 112 127c27 0 55 -8 79 -18c26 -11 49 -19 65 -19c27 0 39 20 46 42h66c-11 -64 -37 -127 -112 -127c-28 0 -57 9 -82 20c-24 11 -46 18 -62 18
c-27 0 -39 -21 -46 -43z" />
    <glyph glyph-name="igrave.sc" horiz-adv-x="274" 
d="M76 0v542h122v-542h-122zM98 738l99 -144h-94l-141 144h136z" />
    <glyph glyph-name="aring.sc" horiz-adv-x="582" 
d="M-2 0l235 542h117l234 -542h-136l-48 118h-223l-47 -118h-132zM215 214h148l-75 187zM396 685c0 -59 -46 -102 -105 -102s-105 43 -105 101c0 59 45 103 105 103c59 0 105 -43 105 -102zM350 685c0 33 -26 57 -59 57c-34 0 -59 -25 -59 -58c0 -32 26 -56 59 -56
s59 24 59 57z" />
    <glyph glyph-name="gdotaccent" unicode="&#x121;" horiz-adv-x="632" 
d="M446 480h114v-437c0 -173 -84 -283 -271 -283c-78 0 -176 28 -238 79l69 93c46 -44 108 -68 168 -68c116 0 152 70 152 165v35h-2c-35 -47 -91 -72 -157 -72c-144 0 -237 114 -237 250c0 139 90 252 235 252c67 0 130 -28 165 -86h2v72zM304 396
c-87 0 -138 -68 -138 -153c0 -76 51 -152 137 -152c89 0 143 72 143 152c0 83 -55 153 -142 153zM239 643c0 38 32 72 76 72s78 -31 78 -72s-34 -72 -78 -72s-76 34 -76 72z" />
    <glyph glyph-name="ucircumflex" unicode="&#xfb;" horiz-adv-x="582" 
d="M510 480v-480h-114v77h-2c-21 -48 -78 -91 -149 -91c-125 0 -177 96 -177 194v300h120v-266c0 -57 13 -128 90 -128c76 0 112 66 112 130v264h120zM475 564h-114l-69 90l-69 -90h-112l115 144h135z" />
    <glyph glyph-name="ring.sc" 
d="M235 685c0 -59 -46 -102 -105 -102s-105 43 -105 101c0 59 45 103 105 103c59 0 105 -43 105 -102zM189 685c0 33 -26 57 -59 57c-34 0 -59 -25 -59 -58c0 -32 26 -56 59 -56s59 24 59 57z" />
    <glyph glyph-name="ugrave" unicode="&#xf9;" horiz-adv-x="582" 
d="M510 480v-480h-114v77h-2c-21 -48 -78 -91 -149 -91c-125 0 -177 96 -177 194v300h120v-266c0 -57 13 -128 90 -128c76 0 112 66 112 130v264h120zM264 708l99 -144h-94l-141 144h136z" />
    <glyph glyph-name="Tcommaaccent" unicode="&#x162;" horiz-adv-x="568" 
d="M221 0v598h-217v110h560v-110h-217v-598h-126zM179 -240l65 195h106l-80 -195h-91z" />
    <glyph glyph-name="Zcaron" unicode="&#x17d;" horiz-adv-x="611" 
d="M35 0v114l385 484h-379v110h529v-114l-387 -482h393v-112h-541zM126 908h114l69 -90l69 90h110l-115 -144h-133z" />
    <glyph glyph-name="aacute" unicode="&#xe1;" horiz-adv-x="550" 
d="M370 0v61h-3c-24 -42 -81 -73 -149 -73c-77 0 -180 37 -180 149c0 143 180 163 330 163v12c0 59 -50 88 -110 88c-51 0 -100 -24 -131 -55l-62 73c54 50 130 76 203 76c172 0 214 -106 214 -202v-292h-112zM368 202v17h-27c-76 0 -183 -9 -183 -80c0 -46 43 -60 84 -60
c82 0 126 47 126 123zM195 564l99 144h136l-141 -144h-94z" />
    <glyph glyph-name="hungarumlaut.sc" 
d="M-20 594l99 144h136l-141 -144h-94zM185 594l99 144h136l-141 -144h-94z" />
    <glyph glyph-name="Ocircumflex" unicode="&#xd4;" horiz-adv-x="849" 
d="M44 356c0 227 161 370 379 370c221 0 382 -143 382 -370c0 -221 -161 -374 -382 -374c-218 0 -379 153 -379 374zM181 356c0 -151 99 -261 243 -261c145 0 244 110 244 261c0 146 -97 259 -244 259c-146 0 -243 -113 -243 -259zM611 764h-114l-69 90l-69 -90h-112
l115 144h135z" />
    <glyph glyph-name="Oacute" unicode="&#xd3;" horiz-adv-x="849" 
d="M44 356c0 227 161 370 379 370c221 0 382 -143 382 -370c0 -221 -161 -374 -382 -374c-218 0 -379 153 -379 374zM181 356c0 -151 99 -261 243 -261c145 0 244 110 244 261c0 146 -97 259 -244 259c-146 0 -243 -113 -243 -259zM361 764l99 144h136l-141 -144h-94z" />
    <glyph glyph-name="sterling.sc" horiz-adv-x="516" 
d="M60 0v100h61v131h-61v82h61v58c0 87 64 180 190 180c63 0 104 -18 143 -51l-68 -79c-25 26 -45 34 -73 34c-35 0 -72 -28 -72 -89v-53h110v-82h-110v-131h187v-100h-368z" />
    <glyph glyph-name="nacute.sc" horiz-adv-x="634" 
d="M76 0v542h148l215 -374h2v374h117v-542h-148l-215 375h-2v-375h-117zM245 594l99 144h136l-141 -144h-94z" />
    <glyph glyph-name="uring" unicode="&#x16f;" horiz-adv-x="582" 
d="M510 480v-480h-114v77h-2c-21 -48 -78 -91 -149 -91c-125 0 -177 96 -177 194v300h120v-266c0 -57 13 -128 90 -128c76 0 112 66 112 130v264h120zM393 655c0 -59 -46 -102 -105 -102s-105 43 -105 101c0 59 45 103 105 103c59 0 105 -43 105 -102zM347 655
c0 33 -26 57 -59 57c-34 0 -59 -25 -59 -58c0 -32 26 -56 59 -56s59 24 59 57z" />
    <glyph glyph-name="uacute" unicode="&#xfa;" horiz-adv-x="582" 
d="M510 480v-480h-114v77h-2c-21 -48 -78 -91 -149 -91c-125 0 -177 96 -177 194v300h120v-266c0 -57 13 -128 90 -128c76 0 112 66 112 130v264h120zM225 564l99 144h136l-141 -144h-94z" />
    <glyph glyph-name="ubreve.sc" horiz-adv-x="595" 
d="M525 542v-339c0 -138 -102 -217 -228 -217s-227 79 -227 217v339h122v-330c0 -66 34 -116 105 -116c72 0 106 50 106 116v330h122zM126 738h67c9 -50 52 -66 103 -66c57 0 90 10 104 66h66c-10 -98 -76 -144 -171 -144s-163 44 -169 144z" />
    <glyph glyph-name="seven.sc" horiz-adv-x="516" 
d="M69 438v104h381v-96l-211 -446h-137l224 438h-257z" />
    <glyph glyph-name="odieresis.sc" horiz-adv-x="684" 
d="M44 273c0 173 129 283 297 283c170 0 299 -110 299 -283c0 -169 -129 -287 -299 -287c-168 0 -297 118 -297 287zM176 273c0 -107 67 -175 165 -175c99 0 166 68 166 175c0 102 -66 174 -166 174c-99 0 -165 -72 -165 -174zM170 674c0 37 30 70 71 70s73 -30 73 -70
s-32 -70 -73 -70s-71 33 -71 70zM366 674c0 37 30 70 71 70s73 -30 73 -70s-32 -70 -73 -70s-71 33 -71 70z" />
    <glyph glyph-name="zcaron.sc" horiz-adv-x="523" 
d="M50 0v98l276 345h-273v99h417v-101l-273 -341h276v-100h-423zM84 738h114l69 -90l69 90h110l-115 -144h-133z" />
    <glyph glyph-name="obreve" unicode="&#x14f;" horiz-adv-x="610" 
d="M44 242c0 151 116 252 261 252s261 -101 261 -252s-116 -256 -261 -256s-261 105 -261 256zM166 242c0 -75 44 -156 139 -156s139 81 139 156s-44 154 -139 154s-139 -79 -139 -154zM135 708h67c9 -50 52 -66 103 -66c57 0 90 10 104 66h66c-10 -98 -76 -144 -171 -144
s-163 44 -169 144z" />
    <glyph glyph-name="nine.onum" horiz-adv-x="625" 
d="M568 309c0 -166 -162 -371 -315 -493l-103 59c91 69 184 163 233 244l-3 2c-22 -17 -58 -26 -99 -26c-124 0 -224 91 -224 224c0 148 111 242 255 242c145 0 256 -91 256 -252zM446 323c0 75 -54 136 -134 136s-134 -57 -134 -137c0 -77 53 -135 133 -135
c81 0 135 57 135 136z" />
    <glyph glyph-name="uni02C9" unicode="&#x2c9;" 
d="M290 873v-78h-320v78h320z" />
    <glyph glyph-name="germandbls.sc" horiz-adv-x="984" 
d="M448 474l-83 -79c-23 32 -66 59 -113 59c-41 0 -82 -15 -82 -56s39 -53 111 -71c76 -19 166 -55 166 -160c0 -131 -102 -181 -214 -181c-79 0 -162 31 -211 88l85 86c27 -38 76 -67 131 -67c38 0 82 14 82 61c0 45 -39 58 -117 77c-76 19 -152 52 -152 153
c0 120 103 172 204 172c74 0 151 -27 193 -82zM940 474l-83 -79c-23 32 -66 59 -113 59c-41 0 -82 -15 -82 -56s39 -53 111 -71c76 -19 166 -55 166 -160c0 -131 -102 -181 -214 -181c-79 0 -162 31 -211 88l85 86c27 -38 76 -67 131 -67c38 0 82 14 82 61
c0 45 -39 58 -117 77c-76 19 -152 52 -152 153c0 120 103 172 204 172c74 0 151 -27 193 -82z" />
    <glyph glyph-name="mu" unicode="&#xb5;" horiz-adv-x="574" 
d="M68 480h120v-243c0 -53 4 -141 88 -141c79 0 110 58 110 122v262h120v-480h-114v77h-2c-22 -48 -60 -89 -137 -89c-24 0 -52 8 -65 24v-240h-120v708z" />
    <glyph glyph-name="Racute" unicode="&#x154;" horiz-adv-x="629" 
d="M78 0v708h246c133 0 261 -53 261 -203c0 -102 -63 -169 -162 -191l189 -314h-152l-164 300h-92v-300h-126zM204 403h103c71 0 152 17 152 103c0 77 -76 96 -141 96h-114v-199zM224 764l99 144h136l-141 -144h-94z" />
    <glyph glyph-name="aacute.sc" horiz-adv-x="582" 
d="M-2 0l235 542h117l234 -542h-136l-48 118h-223l-47 -118h-132zM215 214h148l-75 187zM234 594l99 144h136l-141 -144h-94z" />
    <glyph glyph-name="Dcaron" unicode="&#x10e;" horiz-adv-x="764" 
d="M78 0v708h251c185 0 391 -88 391 -354c0 -248 -206 -354 -391 -354h-251zM204 110h105c130 0 276 53 276 244c0 203 -146 246 -276 246h-105v-490zM163 908h114l69 -90l69 90h110l-115 -144h-133z" />
    <glyph glyph-name="plusminus" unicode="&#xb1;" horiz-adv-x="666" 
d="M286 431v143h96v-143h204v-102h-204v-143h-96v143h-206v102h206zM80 32v102h506v-102h-506z" />
    <glyph glyph-name="abreve" unicode="&#x103;" horiz-adv-x="550" 
d="M370 0v61h-3c-24 -42 -81 -73 -149 -73c-77 0 -180 37 -180 149c0 143 180 163 330 163v12c0 59 -50 88 -110 88c-51 0 -100 -24 -131 -55l-62 73c54 50 130 76 203 76c172 0 214 -106 214 -202v-292h-112zM368 202v17h-27c-76 0 -183 -9 -183 -80c0 -46 43 -60 84 -60
c82 0 126 47 126 123zM109 708h67c9 -50 52 -66 103 -66c57 0 90 10 104 66h66c-10 -98 -76 -144 -171 -144s-163 44 -169 144z" />
    <glyph glyph-name="q.sc" horiz-adv-x="679" 
d="M662 100v-100h-327c-174 0 -291 98 -291 277c0 164 125 279 292 279s291 -104 291 -270c0 -86 -34 -145 -79 -183v-3h114zM336 447c-90 0 -160 -70 -160 -170c0 -110 68 -177 160 -177c96 0 160 67 160 177c0 100 -68 170 -160 170z" />
    <glyph glyph-name="Aogonek" unicode="&#x104;" horiz-adv-x="706" 
d="M653 -147l25 -49c-28 -22 -63 -38 -100 -38c-53 0 -103 31 -103 89c0 55 52 113 94 146l-65 161h-307l-64 -162h-141l308 708h109l305 -708h-85c-31 -29 -76 -81 -76 -122c0 -25 21 -46 46 -46c19 0 40 9 54 21zM240 270h220l-109 288z" />
    <glyph glyph-name="lozenge" unicode="&#x25ca;" horiz-adv-x="593" 
d="M524 356l-178 -391h-100l-177 391l177 391h100zM415 356l-119 285l-118 -285l118 -286z" />
    <glyph glyph-name="exclamdown.sc" horiz-adv-x="308" 
d="M214 0h-120v343h120v-343zM76 473c0 43 36 75 78 75c44 0 78 -34 78 -77s-35 -75 -78 -75c-44 0 -78 34 -78 77z" />
    <glyph glyph-name="zdotaccent" unicode="&#x17c;" horiz-adv-x="482" 
d="M34 0v106l259 278h-247v96h390v-106l-260 -276h272v-98h-414zM166 643c0 38 32 72 76 72s78 -31 78 -72s-34 -72 -78 -72s-76 34 -76 72z" />
    <glyph glyph-name="jcircumflex.sc" horiz-adv-x="405" 
d="M339 542v-370c0 -79 -30 -186 -171 -186c-91 0 -143 52 -168 134l113 32c13 -42 34 -56 54 -56c36 0 50 25 50 81v365h122zM461 594h-114l-69 90l-69 -90h-112l115 144h135z" />
    <glyph glyph-name="Eacute" unicode="&#xc9;" horiz-adv-x="610" 
d="M78 0v708h469v-110h-343v-180h325v-106h-325v-200h361v-112h-487zM253 764l99 144h136l-141 -144h-94z" />
    <glyph glyph-name="Ydieresis" unicode="&#x178;" horiz-adv-x="622" 
d="M249 0v307l-266 401h154l178 -298l180 298h146l-266 -401v-307h-126zM145 844c0 37 30 70 71 70s73 -30 73 -70s-32 -70 -73 -70s-71 33 -71 70zM341 844c0 37 30 70 71 70s73 -30 73 -70s-32 -70 -73 -70s-71 33 -71 70z" />
    <glyph glyph-name="zacute" unicode="&#x17a;" horiz-adv-x="482" 
d="M34 0v106l259 278h-247v96h390v-106l-260 -276h272v-98h-414zM174 564l99 144h136l-141 -144h-94z" />
    <glyph glyph-name="Zacute" unicode="&#x179;" horiz-adv-x="611" 
d="M35 0v114l385 484h-379v110h529v-114l-387 -482h393v-112h-541zM234 764l99 144h136l-141 -144h-94z" />
    <glyph glyph-name="minus" unicode="&#x2212;" horiz-adv-x="666" 
d="M62 354h542v-102h-542v102z" />
    <glyph glyph-name="uogonek" unicode="&#x173;" horiz-adv-x="582" 
d="M477 -147l25 -49c-28 -22 -63 -38 -100 -38c-53 0 -103 31 -103 89c0 56 54 116 97 149v73h-2c-21 -48 -78 -91 -149 -91c-125 0 -177 96 -177 194v300h120v-266c0 -57 13 -128 90 -128c76 0 112 66 112 130v264h120v-480h-57c-31 -29 -76 -81 -76 -122
c0 -25 21 -46 46 -46c19 0 40 9 54 21z" />
    <glyph glyph-name="Dcroat" unicode="&#x110;" horiz-adv-x="764" 
d="M79 0v324h-66v84h66v300h279c186 0 360 -114 360 -354c0 -242 -205 -354 -375 -354h-264zM205 114h94c158 0 287 68 287 240s-112 240 -266 240h-115v-186h216v-84h-216v-210z" />
    <glyph glyph-name="lacute.sc" horiz-adv-x="433" 
d="M76 0v542h122v-435h221v-107h-343zM90 594l99 144h136l-141 -144h-94z" />
    <glyph glyph-name="uni2215" unicode="&#x2215;" horiz-adv-x="100" 
d="M-214 6l416 734l78 -38l-416 -734z" />
    <glyph glyph-name="Uogonek" unicode="&#x172;" horiz-adv-x="714" 
d="M447 -147l25 -49c-28 -22 -63 -38 -100 -38c-53 0 -103 31 -103 89c0 45 35 93 72 128c-154 7 -269 111 -269 277v448h126v-443c0 -82 38 -170 159 -170s159 88 159 170v443h126v-448c0 -153 -98 -254 -234 -274c-29 -30 -61 -73 -61 -108c0 -25 21 -46 46 -46
c19 0 40 9 54 21z" />
    <glyph glyph-name="ecaron" unicode="&#x11b;" horiz-adv-x="574" 
d="M164 288h246c0 62 -35 116 -113 116c-71 0 -128 -49 -133 -116zM530 234c0 -11 0 -21 -1 -32h-365c5 -68 67 -118 137 -118c60 0 100 24 127 62l80 -64c-47 -64 -115 -96 -206 -96c-148 0 -258 95 -258 251c0 155 109 257 254 257c134 0 232 -87 232 -260zM120 708h114
l69 -90l69 90h110l-115 -144h-133z" />
    <glyph glyph-name="Amacron" unicode="&#x100;" horiz-adv-x="706" 
d="M-8 0l308 708h109l305 -708h-144l-66 162h-307l-64 -162h-141zM240 270h220l-109 288zM515 873v-78h-320v78h320z" />
    <glyph glyph-name="zacute.sc" horiz-adv-x="523" 
d="M50 0v98l276 345h-273v99h417v-101l-273 -341h276v-100h-423zM174 594l99 144h136l-141 -144h-94z" />
    <glyph glyph-name="Odieresis" unicode="&#xd6;" horiz-adv-x="849" 
d="M44 356c0 227 161 370 379 370c221 0 382 -143 382 -370c0 -221 -161 -374 -382 -374c-218 0 -379 153 -379 374zM181 356c0 -151 99 -261 243 -261c145 0 244 110 244 261c0 146 -97 259 -244 259c-146 0 -243 -113 -243 -259zM257 844c0 37 30 70 71 70s73 -30 73 -70
s-32 -70 -73 -70s-71 33 -71 70zM453 844c0 37 30 70 71 70s73 -30 73 -70s-32 -70 -73 -70s-71 33 -71 70z" />
    <glyph glyph-name="six.onum" horiz-adv-x="625" 
d="M568 223c0 -148 -112 -242 -255 -242c-145 0 -256 89 -256 252c0 167 162 368 314 489l102 -59c-88 -66 -182 -158 -231 -240l3 -2c22 17 58 26 99 26c124 0 224 -91 224 -224zM446 220c0 77 -52 135 -132 135c-81 0 -135 -57 -135 -136c0 -75 54 -136 134 -136
s133 57 133 137z" />
    <glyph glyph-name="approxequal" unicode="&#x2248;" horiz-adv-x="666" 
d="M602 451c-9 -87 -48 -172 -149 -172c-40 0 -90 17 -136 35c-47 17 -90 34 -117 34c-37 0 -58 -37 -64 -69h-71c4 42 16 85 40 118c23 33 58 55 106 55c42 0 86 -16 130 -33c44 -16 88 -33 128 -33c37 0 56 32 62 65h71zM600 243c-9 -87 -47 -172 -148 -172
c-39 0 -89 17 -136 35c-46 17 -90 34 -118 34c-37 0 -58 -36 -64 -68h-71c8 84 49 172 146 172c42 0 86 -16 130 -33c44 -16 88 -33 128 -33c37 0 56 32 62 65h71z" />
    <glyph glyph-name="Uring" unicode="&#x16e;" horiz-adv-x="714" 
d="M642 708v-448c0 -171 -123 -278 -285 -278s-285 107 -285 278v448h126v-443c0 -82 38 -170 159 -170s159 88 159 170v443h126zM466 855c0 -59 -46 -102 -105 -102s-105 43 -105 101c0 59 45 103 105 103c59 0 105 -43 105 -102zM420 855c0 33 -26 57 -59 57
c-34 0 -59 -25 -59 -58c0 -32 26 -56 59 -56s59 24 59 57z" />
    <glyph glyph-name="k.sc" horiz-adv-x="569" 
d="M76 0v542h122v-224h2l198 224h161l-243 -252l256 -290h-164l-208 254h-2v-254h-122z" />
    <glyph glyph-name="tcommaaccent.sc" horiz-adv-x="446" 
d="M162 0v439h-158v103h438v-103h-158v-439h-122zM120 -240l65 195h106l-80 -195h-91z" />
    <glyph glyph-name="udieresis" unicode="&#xfc;" horiz-adv-x="582" 
d="M510 480v-480h-114v77h-2c-21 -48 -78 -91 -149 -91c-125 0 -177 96 -177 194v300h120v-266c0 -57 13 -128 90 -128c76 0 112 66 112 130v264h120zM122 644c0 37 30 70 71 70s73 -30 73 -70s-32 -70 -73 -70s-71 33 -71 70zM318 644c0 37 30 70 71 70s73 -30 73 -70
s-32 -70 -73 -70s-71 33 -71 70z" />
    <glyph glyph-name="scircumflex" unicode="&#x15d;" horiz-adv-x="444" 
d="M413 421l-78 -69c-21 28 -61 52 -105 52c-38 0 -77 -14 -77 -52c0 -37 37 -47 104 -63c71 -17 155 -49 155 -143c0 -117 -95 -160 -200 -160c-74 0 -151 28 -197 79l79 74c26 -34 71 -60 123 -60c35 0 77 14 77 57c0 40 -37 52 -110 69c-71 17 -142 46 -142 136
c0 107 96 153 191 153c69 0 141 -24 180 -73zM418 564h-114l-69 90l-69 -90h-112l115 144h135z" />
    <glyph glyph-name="r.sc" horiz-adv-x="529" 
d="M76 0v542h197c111 0 206 -44 206 -163c0 -78 -46 -131 -105 -150l129 -229h-144l-108 211h-53v-211h-122zM198 304h62c46 0 96 12 96 74c0 51 -44 65 -88 65h-70v-139z" />
    <glyph glyph-name="integral" unicode="&#x222b;" horiz-adv-x="611" 
d="M486 709c0 -30 -22 -52 -52 -52c-63 0 -47 73 -76 73c-14 0 -16 -15 -16 -26c0 -41 4 -81 4 -122v-589c0 -100 -19 -208 -144 -208c-47 0 -111 19 -111 76c0 30 23 53 53 53c63 0 47 -73 74 -73c21 0 17 33 17 46c0 34 -4 68 -4 102v506c0 113 -20 291 145 291
c46 0 110 -22 110 -77z" />
    <glyph glyph-name="yacute" unicode="&#xfd;" horiz-adv-x="513" 
d="M206 0l-206 480h133l134 -349h2l119 349h125l-227 -583c-34 -87 -76 -137 -182 -137c-20 0 -41 2 -62 7l10 104c16 -5 32 -7 45 -7c51 0 65 25 85 75zM205 564l99 144h136l-141 -144h-94z" />
    <glyph glyph-name="lslash.sc" horiz-adv-x="433" 
d="M306 393l-296 -252v108l296 251v-107zM76 0v542h122v-437h221v-105h-343z" />
    <glyph glyph-name="Umacron" unicode="&#x16a;" horiz-adv-x="714" 
d="M642 708v-448c0 -171 -123 -278 -285 -278s-285 107 -285 278v448h126v-443c0 -82 38 -170 159 -170s159 88 159 170v443h126zM521 873v-78h-320v78h320z" />
    <glyph glyph-name="scaron.sc" horiz-adv-x="492" 
d="M448 474l-83 -79c-23 32 -66 59 -113 59c-41 0 -82 -15 -82 -56s39 -53 111 -71c76 -19 166 -55 166 -160c0 -131 -102 -181 -214 -181c-79 0 -162 31 -211 88l85 86c27 -38 76 -67 131 -67c38 0 82 14 82 61c0 45 -39 58 -117 77c-76 19 -152 52 -152 153
c0 120 103 172 204 172c74 0 151 -27 193 -82zM74 738h114l69 -90l69 90h110l-115 -144h-133z" />
    <glyph glyph-name="iacute" unicode="&#xed;" horiz-adv-x="268" 
d="M74 0v480h120v-480h-120zM75 564l99 144h136l-141 -144h-94z" />
    <glyph glyph-name="icircumflex.sc" horiz-adv-x="274" 
d="M76 0v542h122v-542h-122zM320 594h-114l-69 90l-69 -90h-112l115 144h135z" />
    <glyph glyph-name="itilde.sc" horiz-adv-x="274" 
d="M76 0v542h122v-542h-122zM21 598h-66c6 32 15 64 32 88c17 23 43 39 80 39c27 0 55 -8 79 -18c26 -11 49 -19 65 -19c27 0 39 20 46 42h66c-11 -64 -37 -127 -112 -127c-28 0 -57 9 -82 20c-24 11 -46 18 -62 18c-27 0 -39 -21 -46 -43z" />
    <glyph glyph-name="Edieresis" unicode="&#xcb;" horiz-adv-x="610" 
d="M78 0v708h469v-110h-343v-180h325v-106h-325v-200h361v-112h-487zM148 844c0 37 30 70 71 70s73 -30 73 -70s-32 -70 -73 -70s-71 33 -71 70zM344 844c0 37 30 70 71 70s73 -30 73 -70s-32 -70 -73 -70s-71 33 -71 70z" />
    <glyph glyph-name="Ograve" unicode="&#xd2;" horiz-adv-x="849" 
d="M44 356c0 227 161 370 379 370c221 0 382 -143 382 -370c0 -221 -161 -374 -382 -374c-218 0 -379 153 -379 374zM181 356c0 -151 99 -261 243 -261c145 0 244 110 244 261c0 146 -97 259 -244 259c-146 0 -243 -113 -243 -259zM395 908l99 -144h-94l-141 144h136z" />
    <glyph glyph-name="Scaron" unicode="&#x160;" horiz-adv-x="574" 
d="M521 650l-82 -90c-27 35 -80 61 -130 61c-58 0 -125 -28 -125 -97c0 -65 55 -84 135 -109c91 -28 207 -68 207 -207c0 -152 -119 -226 -258 -226c-92 0 -187 35 -243 101l90 84c35 -48 99 -78 155 -78c59 0 128 29 128 105c0 74 -74 95 -163 123c-86 27 -179 69 -179 201
c0 144 131 208 259 208c71 0 152 -25 206 -76zM128 908h114l69 -90l69 90h110l-115 -144h-133z" />
    <glyph glyph-name="s.sc" horiz-adv-x="492" 
d="M448 474l-83 -79c-23 32 -66 59 -113 59c-41 0 -82 -15 -82 -56s39 -53 111 -71c76 -19 166 -55 166 -160c0 -131 -102 -181 -214 -181c-79 0 -162 31 -211 88l85 86c27 -38 76 -67 131 -67c38 0 82 14 82 61c0 45 -39 58 -117 77c-76 19 -152 52 -152 153
c0 120 103 172 204 172c74 0 151 -27 193 -82z" />
    <glyph glyph-name="ldot" unicode="&#x140;" horiz-adv-x="391" 
d="M74 0v756h120v-756h-120zM237 453c0 38 32 72 76 72s78 -31 78 -72s-34 -72 -78 -72s-76 34 -76 72z" />
    <glyph glyph-name="hbar.sc" horiz-adv-x="619" 
d="M76 0v542h122v-218h223v218h122v-542h-122v228h-223v-228h-122zM477 460l-19 -60h-312l17 60h314z" />
    <glyph glyph-name="y.sc" horiz-adv-x="510" 
d="M194 0v221l-202 321h143l123 -219l122 219h138l-202 -321v-221h-122z" />
    <glyph glyph-name="kcommaaccent.sc" horiz-adv-x="569" 
d="M76 0v542h122v-224h2l198 224h161l-243 -252l256 -290h-164l-208 254h-2v-254h-122zM184 -240l65 195h106l-80 -195h-91z" />
    <glyph glyph-name="Ugrave" unicode="&#xd9;" horiz-adv-x="714" 
d="M642 708v-448c0 -171 -123 -278 -285 -278s-285 107 -285 278v448h126v-443c0 -82 38 -170 159 -170s159 88 159 170v443h126zM338 908l99 -144h-94l-141 144h136z" />
    <glyph glyph-name="afii61289" unicode="&#x2113;" horiz-adv-x="500" 
d="M443 49c-49 -43 -100 -63 -158 -63c-96 0 -153 56 -153 141v64l-56 -52h-2l-42 63l99 85v244c0 111 70 190 165 190c83 0 137 -56 137 -143c0 -101 -61 -200 -185 -310v-122c0 -57 34 -74 65 -74c26 0 56 12 88 38h2zM338 570c0 41 -18 73 -43 73s-47 -33 -47 -90v-185
c61 67 90 138 90 202z" />
    <glyph glyph-name="Egrave" unicode="&#xc8;" horiz-adv-x="610" 
d="M78 0v708h469v-110h-343v-180h325v-106h-325v-200h361v-112h-487zM296 908l99 -144h-94l-141 144h136z" />
    <glyph glyph-name="lcaron" unicode="&#x13e;" horiz-adv-x="352" 
d="M74 0v756h120v-756h-120zM219 513l65 195h106l-80 -195h-91z" />
    <glyph glyph-name="zdotaccent.sc" horiz-adv-x="523" 
d="M50 0v98l276 345h-273v99h417v-101l-273 -341h276v-100h-423zM188 673c0 38 32 72 76 72s78 -31 78 -72s-34 -72 -78 -72s-76 34 -76 72z" />
    <glyph glyph-name="Acircumflex" unicode="&#xc2;" horiz-adv-x="706" 
d="M-8 0l308 708h109l305 -708h-144l-66 162h-307l-64 -162h-141zM240 270h220l-109 288zM537 764h-114l-69 90l-69 -90h-112l115 144h135z" />
    <glyph glyph-name="uni00AD" unicode="&#xad;" horiz-adv-x="320" 
d="M280 297v-102h-240v102h240z" />
    <glyph glyph-name="tcaron" unicode="&#x165;" horiz-adv-x="360" 
d="M87 384h-84v96h84v139h118v-139h120v-96h-120v-223c0 -43 10 -74 63 -74c16 0 37 3 51 10l4 -94c-21 -8 -53 -13 -80 -13c-127 0 -156 78 -156 170v224zM232 536l65 195h106l-80 -195h-91z" />
    <glyph glyph-name="Tbar" unicode="&#x166;" horiz-adv-x="568" 
d="M506 507v-75h-159v-432h-126v432h-149v75h149v91h-217v110h560v-110h-217v-91h159z" />
    <glyph glyph-name="exclam.sc" horiz-adv-x="308" 
d="M214 542v-343h-120v343h120zM76 69c0 43 34 77 78 77c43 0 78 -32 78 -75s-34 -77 -78 -77c-42 0 -78 32 -78 75z" />
    <glyph glyph-name="a.sc" horiz-adv-x="582" 
d="M-2 0l235 542h117l234 -542h-136l-48 118h-223l-47 -118h-132zM215 214h148l-75 187z" />
    <glyph glyph-name="Omacron" unicode="&#x14c;" horiz-adv-x="849" 
d="M44 356c0 227 161 370 379 370c221 0 382 -143 382 -370c0 -221 -161 -374 -382 -374c-218 0 -379 153 -379 374zM181 356c0 -151 99 -261 243 -261c145 0 244 110 244 261c0 146 -97 259 -244 259c-146 0 -243 -113 -243 -259zM585 873v-78h-320v78h320z" />
    <glyph glyph-name="Obreve" unicode="&#x14e;" horiz-adv-x="849" 
d="M44 356c0 227 161 370 379 370c221 0 382 -143 382 -370c0 -221 -161 -374 -382 -374c-218 0 -379 153 -379 374zM181 356c0 -151 99 -261 243 -261c145 0 244 110 244 261c0 146 -97 259 -244 259c-146 0 -243 -113 -243 -259zM255 908h67c9 -50 52 -66 103 -66
c57 0 90 10 104 66h66c-10 -98 -76 -144 -171 -144s-163 44 -169 144z" />
    <glyph glyph-name="h.sc" horiz-adv-x="619" 
d="M76 0v542h122v-213h223v213h122v-542h-122v228h-223v-228h-122z" />
    <glyph glyph-name="m.sc" horiz-adv-x="746" 
d="M76 0v542h174l126 -359h3l123 359h168v-542h-115v385h-2l-138 -385h-85l-138 385h-2v-385h-114z" />
    <glyph glyph-name="kcommaaccent" unicode="&#x137;" horiz-adv-x="543" 
d="M74 0v756h120v-478h3l182 202h154l-208 -217l221 -263h-159l-190 246h-3v-246h-120zM181 -240l65 195h106l-80 -195h-91z" />
    <glyph glyph-name="tilde.sc" 
d="M12 598h-66c6 32 15 64 32 88c17 23 43 39 80 39c27 0 55 -8 79 -18c26 -11 49 -19 65 -19c27 0 39 20 46 42h66c-11 -64 -37 -127 -112 -127c-28 0 -57 9 -82 20c-24 11 -46 18 -62 18c-27 0 -39 -21 -46 -43z" />
    <glyph glyph-name="hcircumflex" unicode="&#x125;" horiz-adv-x="584" 
d="M339 494c125 0 177 -96 177 -194v-300h-120v264c0 57 -12 127 -89 127c-76 0 -113 -65 -113 -129v-262h-120v756h120v-343h2c19 40 72 81 143 81zM476 796h-114l-69 90l-69 -90h-112l115 144h135z" />
    <glyph glyph-name="ubreve" unicode="&#x16d;" horiz-adv-x="582" 
d="M510 480v-480h-114v77h-2c-21 -48 -78 -91 -149 -91c-125 0 -177 96 -177 194v300h120v-266c0 -57 13 -128 90 -128c76 0 112 66 112 130v264h120zM119 708h67c9 -50 52 -66 103 -66c57 0 90 10 104 66h66c-10 -98 -76 -144 -171 -144s-163 44 -169 144z" />
    <glyph glyph-name="Rcaron" unicode="&#x158;" horiz-adv-x="629" 
d="M78 0v708h246c133 0 261 -53 261 -203c0 -102 -63 -169 -162 -191l189 -314h-152l-164 300h-92v-300h-126zM204 403h103c71 0 152 17 152 103c0 77 -76 96 -141 96h-114v-199zM124 908h114l69 -90l69 90h110l-115 -144h-133z" />
    <glyph glyph-name="Thorn" unicode="&#xde;" horiz-adv-x="610" 
d="M78 0v708h126v-134h105c162 0 267 -57 267 -205c0 -156 -125 -210 -275 -210h-97v-159h-126zM204 265h88c82 0 157 20 157 104s-75 99 -153 99h-92v-203z" />
    <glyph glyph-name="grave.cap" 
d="M101 908l99 -144h-94l-141 144h136z" />
    <glyph glyph-name="Scedilla" unicode="&#x15e;" horiz-adv-x="574" 
d="M521 650l-82 -90c-27 35 -80 61 -130 61c-58 0 -125 -28 -125 -97c0 -65 55 -84 135 -109c91 -28 207 -68 207 -207c0 -140 -101 -213 -226 -224l-33 -48c8 1 14 1 19 1c50 0 105 -14 105 -83c0 -73 -76 -94 -136 -94c-40 0 -82 11 -110 26l23 48c25 -13 54 -20 82 -20
c22 0 57 6 57 41c0 30 -32 36 -53 36c-11 0 -27 -2 -39 -6l-23 25l50 73c-84 6 -167 40 -217 100l90 84c35 -48 99 -78 155 -78c59 0 128 29 128 105c0 74 -74 95 -163 123c-86 27 -179 69 -179 201c0 144 131 208 259 208c71 0 152 -25 206 -76z" />
    <glyph glyph-name="Gbreve" unicode="&#x11e;" horiz-adv-x="773" 
d="M698 404v-367c-71 -34 -156 -55 -267 -55c-228 0 -387 153 -387 374c0 227 166 370 384 370c112 0 212 -36 269 -89l-87 -94c-36 40 -105 72 -181 72c-149 0 -246 -113 -246 -259c0 -151 96 -261 252 -261c53 0 100 8 141 25v180h-149v104h271zM260 908h67
c9 -50 52 -66 103 -66c57 0 90 10 104 66h66c-10 -98 -76 -144 -171 -144s-163 44 -169 144z" />
    <glyph glyph-name="acircumflex" unicode="&#xe2;" horiz-adv-x="550" 
d="M370 0v61h-3c-24 -42 -81 -73 -149 -73c-77 0 -180 37 -180 149c0 143 180 163 330 163v12c0 59 -50 88 -110 88c-51 0 -100 -24 -131 -55l-62 73c54 50 130 76 203 76c172 0 214 -106 214 -202v-292h-112zM368 202v17h-27c-76 0 -183 -9 -183 -80c0 -46 43 -60 84 -60
c82 0 126 47 126 123zM456 564h-114l-69 90l-69 -90h-112l115 144h135z" />
    <glyph glyph-name="Agrave" unicode="&#xc0;" horiz-adv-x="706" 
d="M-8 0l308 708h109l305 -708h-144l-66 162h-307l-64 -162h-141zM240 270h220l-109 288zM304 908l99 -144h-94l-141 144h136z" />
    <glyph glyph-name="Aacute" unicode="&#xc1;" horiz-adv-x="706" 
d="M-8 0l308 708h109l305 -708h-144l-66 162h-307l-64 -162h-141zM240 270h220l-109 288zM301 764l99 144h136l-141 -144h-94z" />
    <glyph glyph-name="seven.onum" horiz-adv-x="546" 
d="M499 444c-106 -211 -221 -464 -285 -626l-124 30c74 165 208 446 282 593h-329v105h456v-102z" />
    <glyph glyph-name="tbar.sc" horiz-adv-x="446" 
d="M162 0v439h-158v103h438v-103h-158v-439h-122zM392 345v-75h-338v75h338z" />
    <glyph glyph-name="acute.cap" 
d="M60 764l99 144h136l-141 -144h-94z" />
    <glyph glyph-name="Emacron" unicode="&#x112;" horiz-adv-x="610" 
d="M78 0v708h469v-110h-343v-180h325v-106h-325v-200h361v-112h-487zM477 873v-78h-320v78h320z" />
    <glyph glyph-name="wcircumflex.sc" horiz-adv-x="826" 
d="M171 0l-165 542h135l98 -380h2l105 380h135l106 -380h2l100 380h131l-164 -542h-132l-110 374h-2l-110 -374h-131zM595 594h-114l-69 90l-69 -90h-112l115 144h135z" />
    <glyph glyph-name="ebreve.sc" horiz-adv-x="508" 
d="M76 0v542h374v-101h-252v-114h239v-96h-239v-127h265v-104h-387zM94 738h67c9 -50 52 -66 103 -66c57 0 90 10 104 66h66c-10 -98 -76 -144 -171 -144s-163 44 -169 144z" />
    <glyph glyph-name="ncommaaccent.sc" horiz-adv-x="634" 
d="M76 0v542h148l215 -374h2v374h117v-542h-148l-215 375h-2v-375h-117zM215 -240l65 195h106l-80 -195h-91z" />
    <glyph glyph-name="logicalnot" unicode="&#xac;" horiz-adv-x="666" 
d="M502 147v195h-440v102h542v-297h-102z" />
    <glyph glyph-name="Ccedilla" unicode="&#xc7;" horiz-adv-x="696" 
d="M685 618l-96 -76c-37 51 -104 73 -161 73c-146 0 -245 -113 -245 -259c0 -154 94 -261 240 -261c76 0 136 33 172 82l101 -71c-59 -75 -146 -119 -258 -123l-32 -47c8 1 14 1 19 1c50 0 105 -14 105 -83c0 -73 -76 -94 -136 -94c-40 0 -82 11 -110 26l23 48
c25 -13 54 -20 82 -20c22 0 57 6 57 41c0 30 -32 36 -53 36c-11 0 -27 -2 -39 -6l-23 25l51 74c-200 17 -338 164 -338 372c0 227 166 370 384 370c92 0 201 -34 257 -108z" />
    <glyph glyph-name="three.onum" horiz-adv-x="559" 
d="M498 78c0 -164 -132 -248 -300 -248c-38 0 -83 3 -118 10l17 104c29 -7 66 -10 95 -10c113 0 183 49 183 140c0 71 -55 120 -158 120c-34 0 -71 -7 -105 -15l-23 86c72 50 186 135 238 177v4h-255v100h398v-106c-51 -44 -152 -121 -214 -163v-3c8 1 17 2 31 2
c121 0 211 -82 211 -198z" />
    <glyph glyph-name="Rcommaaccent" unicode="&#x156;" horiz-adv-x="629" 
d="M78 0v708h246c133 0 261 -53 261 -203c0 -102 -63 -169 -162 -191l189 -314h-152l-164 300h-92v-300h-126zM204 403h103c71 0 152 17 152 103c0 77 -76 96 -141 96h-114v-199zM212 -240l65 195h106l-80 -195h-91z" />
    <glyph glyph-name="Gcircumflex" unicode="&#x11c;" horiz-adv-x="773" 
d="M698 404v-367c-71 -34 -156 -55 -267 -55c-228 0 -387 153 -387 374c0 227 166 370 384 370c112 0 212 -36 269 -89l-87 -94c-36 40 -105 72 -181 72c-149 0 -246 -113 -246 -259c0 -151 96 -261 252 -261c53 0 100 8 141 25v180h-149v104h271zM613 764h-114l-69 90
l-69 -90h-112l115 144h135z" />
    <glyph glyph-name="Uhungarumlaut" unicode="&#x170;" horiz-adv-x="714" 
d="M642 708v-448c0 -171 -123 -278 -285 -278s-285 107 -285 278v448h126v-443c0 -82 38 -170 159 -170s159 88 159 170v443h126zM203 764l99 144h136l-141 -144h-94zM408 764l99 144h136l-141 -144h-94z" />
    <glyph glyph-name="partialdiff" unicode="&#x2202;" horiz-adv-x="556" 
d="M514 358c0 -170 -45 -371 -255 -371c-132 0 -219 98 -219 228c0 128 87 221 216 221c55 0 101 -20 143 -55v28c2 95 -33 225 -151 225c-47 0 -86 -20 -122 -49l-59 70c55 42 104 66 175 66c207 0 272 -188 272 -363zM398 264l-1 25c-35 39 -72 64 -126 64
c-83 0 -122 -68 -122 -144c0 -72 34 -138 114 -138c95 0 137 113 135 193z" />
    <glyph glyph-name="Delta" unicode="&#x2206;" horiz-adv-x="685" 
d="M677 0h-669l270 712h115zM519 104l-185 477l-173 -477h358z" />
    <glyph glyph-name="agrave" unicode="&#xe0;" horiz-adv-x="550" 
d="M370 0v61h-3c-24 -42 -81 -73 -149 -73c-77 0 -180 37 -180 149c0 143 180 163 330 163v12c0 59 -50 88 -110 88c-51 0 -100 -24 -131 -55l-62 73c54 50 130 76 203 76c172 0 214 -106 214 -202v-292h-112zM368 202v17h-27c-76 0 -183 -9 -183 -80c0 -46 43 -60 84 -60
c82 0 126 47 126 123zM236 708l99 -144h-94l-141 144h136z" />
    <glyph glyph-name="one.onum" horiz-adv-x="426" 
d="M310 0h-120v408l-94 -76l-65 81l170 133h109v-546z" />
    <glyph glyph-name="ntilde.sc" horiz-adv-x="634" 
d="M76 0v542h148l215 -374h2v374h117v-542h-148l-215 375h-2v-375h-117zM196 598h-66c6 32 15 64 32 88c17 23 43 39 80 39c27 0 55 -8 79 -18c26 -11 49 -19 65 -19c27 0 39 20 46 42h66c-11 -64 -37 -127 -112 -127c-28 0 -57 9 -82 20c-24 11 -46 18 -62 18
c-27 0 -39 -21 -46 -43z" />
    <glyph glyph-name="w.sc" horiz-adv-x="826" 
d="M171 0l-165 542h135l98 -380h2l105 380h135l106 -380h2l100 380h131l-164 -542h-132l-110 374h-2l-110 -374h-131z" />
    <glyph glyph-name="acute.sc" 
d="M83 594l99 144h136l-141 -144h-94z" />
    <glyph glyph-name="Tcaron" unicode="&#x164;" horiz-adv-x="568" 
d="M221 0v598h-217v110h560v-110h-217v-598h-126zM105 908h114l69 -90l69 90h110l-115 -144h-133z" />
    <glyph glyph-name="scaron" unicode="&#x161;" horiz-adv-x="444" 
d="M413 421l-78 -69c-21 28 -61 52 -105 52c-38 0 -77 -14 -77 -52c0 -37 37 -47 104 -63c71 -17 155 -49 155 -143c0 -117 -95 -160 -200 -160c-74 0 -151 28 -197 79l79 74c26 -34 71 -60 123 -60c35 0 77 14 77 57c0 40 -37 52 -110 69c-71 17 -142 46 -142 136
c0 107 96 153 191 153c69 0 141 -24 180 -73zM47 708h114l69 -90l69 90h110l-115 -144h-133z" />
    <glyph glyph-name="CR" unicode="&#xd;" horiz-adv-x="0" 
 />
    <glyph glyph-name="Lcaron" unicode="&#x13d;" horiz-adv-x="511" 
d="M78 0v708h126v-596h301v-112h-427zM266 513l65 195h106l-80 -195h-91z" />
    <glyph glyph-name="scedilla" unicode="&#x15f;" horiz-adv-x="444" 
d="M413 421l-78 -69c-21 28 -61 52 -105 52c-38 0 -77 -14 -77 -52c0 -37 37 -47 104 -63c71 -17 155 -49 155 -143c0 -106 -78 -151 -171 -159l-36 -51c8 1 14 1 19 1c50 0 105 -14 105 -83c0 -73 -76 -94 -136 -94c-40 0 -82 11 -110 26l23 48c25 -13 54 -20 82 -20
c22 0 57 6 57 41c0 30 -32 36 -53 36c-11 0 -27 -2 -39 -6l-23 25l53 78c-65 6 -128 32 -168 77l79 74c26 -34 71 -60 123 -60c35 0 77 14 77 57c0 40 -37 52 -110 69c-71 17 -142 46 -142 136c0 107 96 153 191 153c69 0 141 -24 180 -73z" />
    <glyph glyph-name="onequarter" unicode="&#xbc;" horiz-adv-x="900" 
d="M682 0v85h-190v74l179 270h97v-265h58v-79h-58v-85h-86zM682 164v149h-1l-96 -149h97zM186 6l416 734l78 -38l-416 -734zM95 535l-53 62l137 111h83v-429h-94v317z" />
    <glyph glyph-name="Imacron" unicode="&#x12a;" horiz-adv-x="282" 
d="M78 0v708h126v-708h-126zM301 873v-78h-320v78h320z" />
    <glyph glyph-name="Sacute" unicode="&#x15a;" horiz-adv-x="574" 
d="M521 650l-82 -90c-27 35 -80 61 -130 61c-58 0 -125 -28 -125 -97c0 -65 55 -84 135 -109c91 -28 207 -68 207 -207c0 -152 -119 -226 -258 -226c-92 0 -187 35 -243 101l90 84c35 -48 99 -78 155 -78c59 0 128 29 128 105c0 74 -74 95 -163 123c-86 27 -179 69 -179 201
c0 144 131 208 259 208c71 0 152 -25 206 -76zM233 764l99 144h136l-141 -144h-94z" />
    <glyph glyph-name="Zdotaccent" unicode="&#x17b;" horiz-adv-x="611" 
d="M35 0v114l385 484h-379v110h529v-114l-387 -482h393v-112h-541zM232 843c0 38 32 72 76 72s78 -31 78 -72s-34 -72 -78 -72s-76 34 -76 72z" />
    <glyph glyph-name="four.sc" horiz-adv-x="516" 
d="M287 0v104h-252v94l222 344h142v-343h72v-95h-72v-104h-112zM287 199v209h-3l-129 -209h132z" />
    <glyph glyph-name="Abreve" unicode="&#x102;" horiz-adv-x="706" 
d="M-8 0l308 708h109l305 -708h-144l-66 162h-307l-64 -162h-141zM240 270h220l-109 288zM184 908h67c9 -50 52 -66 103 -66c57 0 90 10 104 66h66c-10 -98 -76 -144 -171 -144s-163 44 -169 144z" />
    <glyph glyph-name="Euro.sc" horiz-adv-x="516" 
d="M438 111l35 -93c-33 -20 -86 -32 -133 -32c-115 0 -207 55 -241 174h-79l28 81h37c-1 5 -1 16 -1 27c0 12 1 26 2 31h-60l28 81h45c35 111 128 176 251 176c50 0 101 -14 131 -27l-39 -97c-24 16 -59 26 -97 26c-60 0 -111 -33 -130 -78h210l-24 -81h-202
c-1 -6 -2 -21 -2 -32c0 -9 1 -21 2 -26h183l-26 -81h-141c20 -57 78 -74 129 -74c33 0 65 8 94 25z" />
    <glyph glyph-name="dotaccent.cap" 
d="M54 843c0 38 32 72 76 72s78 -31 78 -72s-34 -72 -78 -72s-76 34 -76 72z" />
    <glyph glyph-name="infinity" unicode="&#x221e;" horiz-adv-x="815" 
d="M770 263c0 -101 -63 -182 -169 -182c-83 0 -141 54 -193 112c-55 -58 -106 -111 -192 -111c-105 0 -171 78 -171 180c0 100 63 179 167 179c87 0 144 -57 196 -119c51 61 108 120 194 120c104 0 168 -79 168 -179zM680 260c0 48 -29 86 -80 86c-52 0 -102 -51 -135 -87
c35 -39 82 -82 138 -82c49 0 77 37 77 83zM350 259c-33 35 -87 86 -138 86c-47 0 -77 -40 -77 -85c0 -49 31 -82 80 -82c51 0 103 45 135 81z" />
    <glyph glyph-name="aogonek.sc" horiz-adv-x="582" 
d="M-2 0l235 542h117l234 -542h-136l-48 118h-223l-47 -118h-132zM215 214h148l-75 187zM526 -153l25 -49c-28 -22 -63 -38 -100 -38c-53 0 -103 31 -103 89c0 57 57 118 100 151h61c-31 -27 -83 -84 -83 -128c0 -25 21 -46 46 -46c19 0 40 9 54 21z" />
    <glyph glyph-name="uni0394" unicode="&#x394;" horiz-adv-x="685" 
d="M677 0h-669l270 712h115zM519 104l-185 477l-173 -477h358z" />
    <glyph glyph-name="Ohungarumlaut" unicode="&#x150;" horiz-adv-x="849" 
d="M44 356c0 227 161 370 379 370c221 0 382 -143 382 -370c0 -221 -161 -374 -382 -374c-218 0 -379 153 -379 374zM181 356c0 -151 99 -261 243 -261c145 0 244 110 244 261c0 146 -97 259 -244 259c-146 0 -243 -113 -243 -259zM272 764l99 144h136l-141 -144h-94z
M477 764l99 144h136l-141 -144h-94z" />
    <glyph glyph-name="adieresis" unicode="&#xe4;" horiz-adv-x="550" 
d="M370 0v61h-3c-24 -42 -81 -73 -149 -73c-77 0 -180 37 -180 149c0 143 180 163 330 163v12c0 59 -50 88 -110 88c-51 0 -100 -24 -131 -55l-62 73c54 50 130 76 203 76c172 0 214 -106 214 -202v-292h-112zM368 202v17h-27c-76 0 -183 -9 -183 -80c0 -46 43 -60 84 -60
c82 0 126 47 126 123zM103 644c0 37 30 70 71 70s73 -30 73 -70s-32 -70 -73 -70s-71 33 -71 70zM299 644c0 37 30 70 71 70s73 -30 73 -70s-32 -70 -73 -70s-71 33 -71 70z" />
    <glyph glyph-name="Omega" unicode="&#x2126;" horiz-adv-x="759" 
d="M701 0h-276v189c102 20 157 108 157 208c0 119 -84 219 -207 219c-125 0 -209 -99 -209 -220c0 -104 52 -181 154 -207v-189h-274v106h172v32c-121 37 -172 143 -172 266c0 185 146 317 327 317c182 0 328 -127 328 -314c0 -125 -49 -232 -173 -269v-32h173v-106z" />
    <glyph glyph-name="Ebreve" unicode="&#x114;" horiz-adv-x="610" 
d="M78 0v708h469v-110h-343v-180h325v-106h-325v-200h361v-112h-487zM146 908h67c9 -50 52 -66 103 -66c57 0 90 10 104 66h66c-10 -98 -76 -144 -171 -144s-163 44 -169 144z" />
    <glyph glyph-name="five.onum" horiz-adv-x="554" 
d="M487 546v-105h-266l-21 -150c18 4 37 6 56 6c129 0 228 -78 228 -215c0 -172 -129 -252 -290 -252c-37 0 -84 3 -121 10l17 104c28 -7 61 -10 93 -10c115 0 179 47 179 145c0 87 -69 126 -156 126c-39 0 -87 -7 -125 -18l38 359h368z" />
    <glyph glyph-name="Ecircumflex" unicode="&#xca;" horiz-adv-x="610" 
d="M78 0v708h469v-110h-343v-180h325v-106h-325v-200h361v-112h-487zM499 764h-114l-69 90l-69 -90h-112l115 144h135z" />
    <glyph glyph-name="Idotaccent" unicode="&#x130;" horiz-adv-x="282" 
d="M78 0v708h126v-708h-126zM63 843c0 38 32 72 76 72s78 -31 78 -72s-34 -72 -78 -72s-76 34 -76 72z" />
    <glyph glyph-name="florin.sc" horiz-adv-x="516" 
d="M407 344v-88h-95l-30 -168c-22 -125 -80 -174 -184 -174c-29 0 -68 8 -92 25l45 88c9 -10 30 -15 41 -15c47 0 66 35 76 95l26 149h-76v88h88l12 72c14 86 74 135 160 135c34 0 75 -11 106 -32l-46 -91c-18 13 -38 19 -57 19c-29 0 -45 -20 -51 -57l-8 -46h85z" />
    <glyph glyph-name="atilde.sc" horiz-adv-x="582" 
d="M-2 0l235 542h117l234 -542h-136l-48 118h-223l-47 -118h-132zM215 214h148l-75 187zM172 598h-66c6 32 15 64 32 88c17 23 43 39 80 39c27 0 55 -8 79 -18c26 -11 49 -19 65 -19c27 0 39 20 46 42h66c-11 -64 -37 -127 -112 -127c-28 0 -57 9 -82 20
c-24 11 -46 18 -62 18c-27 0 -39 -21 -46 -43z" />
    <glyph glyph-name="dollar.sc" horiz-adv-x="516" 
d="M281 610v-68c54 -3 109 -21 153 -57l-74 -79c-22 25 -50 38 -79 41v-125c121 -35 164 -91 164 -163c0 -88 -62 -155 -164 -159v-69h-51v69c-64 4 -126 26 -176 73l83 80c33 -41 65 -54 93 -55v136c-119 33 -163 77 -163 158c0 80 58 144 163 151v67h51zM281 220v-123
c35 4 50 26 50 55c0 28 -13 53 -50 68zM230 335v112c-33 -4 -50 -29 -50 -53c0 -30 15 -47 50 -59z" />
    <glyph glyph-name="divide" unicode="&#xf7;" horiz-adv-x="666" 
d="M258 483c0 41 34 75 75 75s75 -34 75 -75s-34 -75 -75 -75s-75 34 -75 75zM258 123c0 41 34 75 75 75s75 -34 75 -75s-34 -75 -75 -75s-75 34 -75 75zM586 250h-506v107h506v-107z" />
    <glyph glyph-name="Idieresis" unicode="&#xcf;" horiz-adv-x="282" 
d="M78 0v708h126v-708h-126zM-29 844c0 37 30 70 71 70s73 -30 73 -70s-32 -70 -73 -70s-71 33 -71 70zM167 844c0 37 30 70 71 70s73 -30 73 -70s-32 -70 -73 -70s-71 33 -71 70z" />
    <glyph glyph-name="Gcommaaccent" unicode="&#x122;" horiz-adv-x="773" 
d="M698 404v-367c-71 -34 -156 -55 -267 -55c-228 0 -387 153 -387 374c0 227 166 370 384 370c112 0 212 -36 269 -89l-87 -94c-36 40 -105 72 -181 72c-149 0 -246 -113 -246 -259c0 -151 96 -261 252 -261c53 0 100 8 141 25v180h-149v104h271zM321 -240l65 195h106
l-80 -195h-91z" />
    <glyph glyph-name="Udieresis" unicode="&#xdc;" horiz-adv-x="714" 
d="M642 708v-448c0 -171 -123 -278 -285 -278s-285 107 -285 278v448h126v-443c0 -82 38 -170 159 -170s159 88 159 170v443h126zM189 844c0 37 30 70 71 70s73 -30 73 -70s-32 -70 -73 -70s-71 33 -71 70zM385 844c0 37 30 70 71 70s73 -30 73 -70s-32 -70 -73 -70
s-71 33 -71 70z" />
    <glyph glyph-name="aogonek" unicode="&#x105;" horiz-adv-x="550" 
d="M447 -147l25 -49c-28 -22 -63 -38 -100 -38c-53 0 -103 31 -103 89c0 57 57 118 100 151h1v55h-3c-24 -42 -81 -73 -149 -73c-77 0 -180 37 -180 149c0 143 180 163 330 163v12c0 59 -50 88 -110 88c-51 0 -100 -24 -131 -55l-62 73c54 50 130 76 203 76
c172 0 214 -106 214 -202v-292h-59c-31 -29 -76 -81 -76 -122c0 -25 21 -46 46 -46c19 0 40 9 54 21zM368 202v17h-27c-76 0 -183 -9 -183 -80c0 -46 43 -60 84 -60c82 0 126 47 126 123z" />
    <glyph glyph-name="aring" unicode="&#xe5;" horiz-adv-x="550" 
d="M370 0v61h-3c-24 -42 -81 -73 -149 -73c-77 0 -180 37 -180 149c0 143 180 163 330 163v12c0 59 -50 88 -110 88c-51 0 -100 -24 -131 -55l-62 73c54 50 130 76 203 76c172 0 214 -106 214 -202v-292h-112zM368 202v17h-27c-76 0 -183 -9 -183 -80c0 -46 43 -60 84 -60
c82 0 126 47 126 123zM374 655c0 -59 -46 -102 -105 -102s-105 43 -105 101c0 59 45 103 105 103c59 0 105 -43 105 -102zM328 655c0 33 -26 57 -59 57c-34 0 -59 -25 -59 -58c0 -32 26 -56 59 -56s59 24 59 57z" />
    <glyph glyph-name="ccedilla.sc" horiz-adv-x="565" 
d="M546 466l-93 -77c-26 37 -67 58 -115 58c-96 0 -160 -70 -160 -174c0 -100 64 -175 159 -175c52 0 92 21 123 64l96 -73c-44 -60 -110 -103 -223 -103c-175 0 -289 113 -289 287c0 173 129 283 297 283c81 0 157 -29 205 -90zM355 0l-45 -64c8 1 14 1 19 1
c50 0 105 -14 105 -83c0 -73 -76 -94 -136 -94c-40 0 -82 11 -110 26l23 48c25 -13 54 -20 82 -20c22 0 57 6 57 41c0 30 -32 36 -53 36c-11 0 -27 -2 -39 -6l-23 25l62 90h58z" />
    <glyph glyph-name="Edotaccent" unicode="&#x116;" horiz-adv-x="610" 
d="M78 0v708h469v-110h-343v-180h325v-106h-325v-200h361v-112h-487zM244 843c0 38 32 72 76 72s78 -31 78 -72s-34 -72 -78 -72s-76 34 -76 72z" />
    <glyph glyph-name="gbreve.sc" horiz-adv-x="615" 
d="M560 316v-284c-59 -29 -130 -46 -215 -46c-178 0 -301 117 -301 287c0 173 128 283 297 283c93 0 166 -26 216 -72l-85 -93c-28 35 -79 56 -130 56c-103 0 -164 -72 -164 -174c0 -103 68 -177 172 -177c35 0 63 5 89 15v111h-110v94h231zM176 738h67
c9 -50 52 -66 103 -66c57 0 90 10 104 66h66c-10 -98 -76 -144 -171 -144s-163 44 -169 144z" />
    <glyph glyph-name="Scircumflex" unicode="&#x15c;" horiz-adv-x="574" 
d="M521 650l-82 -90c-27 35 -80 61 -130 61c-58 0 -125 -28 -125 -97c0 -65 55 -84 135 -109c91 -28 207 -68 207 -207c0 -152 -119 -226 -258 -226c-92 0 -187 35 -243 101l90 84c35 -48 99 -78 155 -78c59 0 128 29 128 105c0 74 -74 95 -163 123c-86 27 -179 69 -179 201
c0 144 131 208 259 208c71 0 152 -25 206 -76zM494 764h-114l-69 90l-69 -90h-112l115 144h135z" />
    <glyph glyph-name="Ycircumflex" unicode="&#x176;" horiz-adv-x="622" 
d="M249 0v307l-266 401h154l178 -298l180 298h146l-266 -401v-307h-126zM497 764h-114l-69 90l-69 -90h-112l115 144h135z" />
    <glyph glyph-name="uni021A" unicode="&#x21a;" horiz-adv-x="568" 
d="M221 0v598h-217v110h560v-110h-217v-598h-126zM179 -240l65 195h106l-80 -195h-91z" />
    <glyph glyph-name="Ncaron" unicode="&#x147;" horiz-adv-x="780" 
d="M78 0v708h167l329 -530h2v530h126v-708h-160l-336 547h-2v-547h-126zM208 908h114l69 -90l69 90h110l-115 -144h-133z" />
    <glyph glyph-name="Ntilde" unicode="&#xd1;" horiz-adv-x="780" 
d="M78 0v708h167l329 -530h2v530h126v-708h-160l-336 547h-2v-547h-126zM271 768h-66c11 64 37 127 112 127c27 0 55 -8 79 -18c26 -11 49 -19 65 -19c27 0 39 20 46 42h66c-11 -64 -37 -127 -112 -127c-28 0 -57 9 -82 20c-24 11 -46 18 -62 18c-27 0 -39 -21 -46 -43z" />
    <glyph glyph-name="Ccaron" unicode="&#x10c;" horiz-adv-x="696" 
d="M685 618l-96 -76c-37 51 -104 73 -161 73c-146 0 -245 -113 -245 -259c0 -154 94 -261 240 -261c76 0 136 33 172 82l101 -71c-62 -78 -154 -124 -274 -124c-221 0 -378 153 -378 374c0 227 166 370 384 370c92 0 201 -34 257 -108zM243 908h114l69 -90l69 90h110
l-115 -144h-133z" />
    <glyph glyph-name="lcaron.sc" horiz-adv-x="433" 
d="M76 0v542h122v-435h221v-107h-343zM250 347l65 195h106l-80 -195h-91z" />
    <glyph glyph-name="racute.sc" horiz-adv-x="529" 
d="M76 0v542h197c111 0 206 -44 206 -163c0 -78 -46 -131 -105 -150l129 -229h-144l-108 211h-53v-211h-122zM198 304h62c46 0 96 12 96 74c0 51 -44 65 -88 65h-70v-139zM180 594l99 144h136l-141 -144h-94z" />
    <glyph glyph-name="dcroat.sc" horiz-adv-x="623" 
d="M76 0v245h-67v82h67v215h205c152 0 298 -68 298 -270c0 -188 -150 -272 -302 -272h-201zM198 101h64c94 0 185 37 185 171c0 141 -89 171 -185 171h-64v-116h124v-82h-124v-144z" />
    <glyph glyph-name="four.onum" horiz-adv-x="606" 
d="M578 5h-107v-175h-115v175h-318v105l264 451h125l-271 -455h200v226h114v-226h108v-101z" />
    <glyph glyph-name="tilde.cap" 
d="M12 768h-66c11 64 37 127 112 127c27 0 55 -8 79 -18c26 -11 49 -19 65 -19c27 0 39 20 46 42h66c-11 -64 -37 -127 -112 -127c-28 0 -57 9 -82 20c-24 11 -46 18 -62 18c-27 0 -39 -21 -46 -43z" />
    <glyph glyph-name="utilde.sc" horiz-adv-x="595" 
d="M525 542v-339c0 -138 -102 -217 -228 -217s-227 79 -227 217v339h122v-330c0 -66 34 -116 105 -116c72 0 106 50 106 116v330h122zM180 598h-66c6 32 15 64 32 88c17 23 43 39 80 39c27 0 55 -8 79 -18c26 -11 49 -19 65 -19c27 0 39 20 46 42h66
c-11 -64 -37 -127 -112 -127c-28 0 -57 9 -82 20c-24 11 -46 18 -62 18c-27 0 -39 -21 -46 -43z" />
    <glyph glyph-name="acircumflex.sc" horiz-adv-x="582" 
d="M-2 0l235 542h117l234 -542h-136l-48 118h-223l-47 -118h-132zM215 214h148l-75 187zM471 594h-114l-69 90l-69 -90h-112l115 144h135z" />
    <glyph glyph-name="Gdotaccent" unicode="&#x120;" horiz-adv-x="773" 
d="M698 404v-367c-71 -34 -156 -55 -267 -55c-228 0 -387 153 -387 374c0 227 166 370 384 370c112 0 212 -36 269 -89l-87 -94c-36 40 -105 72 -181 72c-149 0 -246 -113 -246 -259c0 -151 96 -261 252 -261c53 0 100 8 141 25v180h-149v104h271zM354 843c0 38 32 72 76 72
s78 -31 78 -72s-34 -72 -78 -72s-76 34 -76 72z" />
    <glyph glyph-name="Ldot" unicode="&#x13f;" horiz-adv-x="511" 
d="M78 0v708h126v-596h301v-112h-427zM288 423c0 38 32 72 76 72s78 -31 78 -72s-34 -72 -78 -72s-76 34 -76 72z" />
    <glyph glyph-name="Hbar" unicode="&#x126;" horiz-adv-x="739" 
d="M78 0v708h126v-133h331v133h126v-708h-126v314h-331v-314h-126zM204 422h331v78h-331v-78z" />
    <glyph glyph-name="edotaccent" unicode="&#x117;" horiz-adv-x="574" 
d="M164 288h246c0 62 -35 116 -113 116c-71 0 -128 -49 -133 -116zM530 234c0 -11 0 -21 -1 -32h-365c5 -68 67 -118 137 -118c60 0 100 24 127 62l80 -64c-47 -64 -115 -96 -206 -96c-148 0 -258 95 -258 251c0 155 109 257 254 257c134 0 232 -87 232 -260zM222 643
c0 38 32 72 76 72s78 -31 78 -72s-34 -72 -78 -72s-76 34 -76 72z" />
    <glyph glyph-name="fi.sc" horiz-adv-x="758" 
d="M560 0v542h122v-542h-122zM76 0v542h365v-103h-243v-128h229v-98h-229v-213h-122z" />
    <glyph glyph-name="ldot.sc" horiz-adv-x="433" 
d="M76 0v542h122v-435h221v-107h-343zM267 313c0 38 32 72 76 72s78 -31 78 -72s-34 -72 -78 -72s-76 34 -76 72z" />
    <glyph glyph-name="Cacute" unicode="&#x106;" horiz-adv-x="696" 
d="M685 618l-96 -76c-37 51 -104 73 -161 73c-146 0 -245 -113 -245 -259c0 -154 94 -261 240 -261c76 0 136 33 172 82l101 -71c-62 -78 -154 -124 -274 -124c-221 0 -378 153 -378 374c0 227 166 370 384 370c92 0 201 -34 257 -108zM330 764l99 144h136l-141 -144h-94z
" />
    <glyph glyph-name="zero.sc" horiz-adv-x="516" 
d="M466 271c0 -184 -82 -285 -208 -285c-127 0 -208 101 -208 285s81 285 208 285c126 0 208 -101 208 -285zM346 271c0 105 -32 179 -88 179s-88 -74 -88 -179s32 -177 88 -177c57 0 88 72 88 177z" />
    <glyph glyph-name="uni2219" unicode="&#x2219;" 
d="M50 291c0 43 36 78 80 78c43 0 80 -33 80 -76s-36 -78 -80 -78c-42 0 -80 33 -80 76z" />
    <glyph glyph-name="b.sc" horiz-adv-x="541" 
d="M76 0v542h219c95 0 174 -42 174 -143c0 -52 -30 -92 -73 -112v-3c60 -16 95 -60 95 -124c0 -120 -107 -160 -212 -160h-203zM195 231v-134h80c58 0 93 25 93 71c0 39 -23 63 -80 63h-93zM195 443v-118h74c48 0 77 25 77 63c0 31 -19 55 -79 55h-72z" />
    <glyph glyph-name="Igrave" unicode="&#xcc;" horiz-adv-x="282" 
d="M78 0v708h126v-708h-126zM104 908l99 -144h-94l-141 144h136z" />
    <glyph glyph-name="sacute" unicode="&#x15b;" horiz-adv-x="444" 
d="M413 421l-78 -69c-21 28 -61 52 -105 52c-38 0 -77 -14 -77 -52c0 -37 37 -47 104 -63c71 -17 155 -49 155 -143c0 -117 -95 -160 -200 -160c-74 0 -151 28 -197 79l79 74c26 -34 71 -60 123 -60c35 0 77 14 77 57c0 40 -37 52 -110 69c-71 17 -142 46 -142 136
c0 107 96 153 191 153c69 0 141 -24 180 -73zM158 564l99 144h136l-141 -144h-94z" />
    <glyph glyph-name="caron.cap" 
d="M-51 908h114l69 -90l69 90h110l-115 -144h-133z" />
    <glyph glyph-name="ebreve" unicode="&#x115;" horiz-adv-x="574" 
d="M164 288h246c0 62 -35 116 -113 116c-71 0 -128 -49 -133 -116zM530 234c0 -11 0 -21 -1 -32h-365c5 -68 67 -118 137 -118c60 0 100 24 127 62l80 -64c-47 -64 -115 -96 -206 -96c-148 0 -258 95 -258 251c0 155 109 257 254 257c134 0 232 -87 232 -260zM131 708h67
c9 -50 52 -66 103 -66c57 0 90 10 104 66h66c-10 -98 -76 -144 -171 -144s-163 44 -169 144z" />
    <glyph glyph-name="Adieresis" unicode="&#xc4;" horiz-adv-x="706" 
d="M-8 0l308 708h109l305 -708h-144l-66 162h-307l-64 -162h-141zM240 270h220l-109 288zM186 844c0 37 30 70 71 70s73 -30 73 -70s-32 -70 -73 -70s-71 33 -71 70zM382 844c0 37 30 70 71 70s73 -30 73 -70s-32 -70 -73 -70s-71 33 -71 70z" />
    <glyph glyph-name="Lacute" unicode="&#x139;" horiz-adv-x="511" 
d="M78 0v708h126v-596h301v-112h-427zM93 764l99 144h136l-141 -144h-94z" />
    <glyph glyph-name="two.sc" horiz-adv-x="516" 
d="M73 0v98l184 179c44 42 60 75 60 110c0 32 -20 66 -66 66c-39 0 -67 -29 -75 -78l-111 16c13 94 86 165 188 165c101 0 184 -56 184 -160c0 -63 -27 -118 -92 -181l-120 -115h216v-100h-368z" />
    <glyph glyph-name="Hcircumflex" unicode="&#x124;" horiz-adv-x="739" 
d="M78 0v708h126v-286h331v286h126v-708h-126v314h-331v-314h-126zM553 764h-114l-69 90l-69 -90h-112l115 144h135z" />
    <glyph glyph-name="dotaccent.sc" 
d="M54 673c0 38 32 72 76 72s78 -31 78 -72s-34 -72 -78 -72s-76 34 -76 72z" />
    <glyph glyph-name="eth" unicode="&#xf0;" horiz-adv-x="610" 
d="M442 768l64 -56l-117 -54c96 -105 178 -236 178 -386c0 -163 -90 -286 -262 -286c-148 0 -261 103 -261 254s115 254 253 254c44 0 83 -12 112 -40l2 2c-34 55 -75 113 -127 156l-108 -50l-60 57l110 50c-19 20 -50 44 -78 65l94 55c36 -28 72 -60 87 -74zM305 86
c96 0 141 79 141 154s-45 154 -141 154c-95 0 -141 -79 -141 -154s46 -154 141 -154z" />
    <glyph glyph-name="cdotaccent" unicode="&#x10b;" horiz-adv-x="488" 
d="M482 419l-82 -72c-19 27 -60 47 -99 47c-88 0 -132 -79 -132 -154s45 -154 136 -154c37 0 78 15 101 43l75 -76c-40 -43 -106 -67 -177 -67c-142 0 -260 94 -260 254c0 156 116 254 257 254c70 0 143 -28 181 -75zM222 643c0 38 32 72 76 72s78 -31 78 -72
s-34 -72 -78 -72s-76 34 -76 72z" />
    <glyph glyph-name="yen.sc" horiz-adv-x="516" 
d="M189 0v93h-123v76h123v55h-123v76h93l-151 242h137l109 -206l110 206h127l-149 -242h88v-76h-123v-55h123v-76h-123v-93h-118z" />
    <glyph glyph-name="Otilde" unicode="&#xd5;" horiz-adv-x="849" 
d="M44 356c0 227 161 370 379 370c221 0 382 -143 382 -370c0 -221 -161 -374 -382 -374c-218 0 -379 153 -379 374zM181 356c0 -151 99 -261 243 -261c145 0 244 110 244 261c0 146 -97 259 -244 259c-146 0 -243 -113 -243 -259zM310 768h-66c11 64 37 127 112 127
c27 0 55 -8 79 -18c26 -11 49 -19 65 -19c27 0 39 20 46 42h66c-11 -64 -37 -127 -112 -127c-28 0 -57 9 -82 20c-24 11 -46 18 -62 18c-27 0 -39 -21 -46 -43z" />
    <glyph glyph-name="eogonek" unicode="&#x119;" horiz-adv-x="574" 
d="M395 -147l25 -49c-28 -22 -63 -38 -100 -38c-53 0 -103 31 -103 89c0 47 38 97 76 131c-144 4 -249 98 -249 251c0 155 109 257 254 257c134 0 232 -87 232 -260c0 -11 0 -21 -1 -32h-365c5 -68 67 -118 137 -118c60 0 100 24 127 62l80 -64c-36 -49 -85 -79 -146 -90
c-30 -30 -67 -77 -67 -114c0 -25 21 -46 46 -46c19 0 40 9 54 21zM164 288h246c0 62 -35 116 -113 116c-71 0 -128 -49 -133 -116z" />
    <glyph glyph-name="Icircumflex" unicode="&#xce;" horiz-adv-x="282" 
d="M78 0v708h126v-708h-126zM322 764h-114l-69 90l-69 -90h-112l115 144h135z" />
    <glyph glyph-name="scedilla.sc" horiz-adv-x="492" 
d="M448 474l-83 -79c-23 32 -66 59 -113 59c-41 0 -82 -15 -82 -56s39 -53 111 -71c76 -19 166 -55 166 -160c0 -131 -102 -181 -214 -181c-79 0 -162 31 -211 88l85 86c27 -38 76 -67 131 -67c38 0 82 14 82 61c0 45 -39 58 -117 77c-76 19 -152 52 -152 153
c0 120 103 172 204 172c74 0 151 -27 193 -82zM272 0l-45 -64c8 1 14 1 19 1c50 0 105 -14 105 -83c0 -73 -76 -94 -136 -94c-40 0 -82 11 -110 26l23 48c25 -13 54 -20 82 -20c22 0 57 6 57 41c0 30 -32 36 -53 36c-11 0 -27 -2 -39 -6l-23 25l62 90h58z" />
    <glyph glyph-name="cent.sc" horiz-adv-x="516" 
d="M328 559v-67c63 -2 129 -20 170 -69l-77 -78c-25 26 -57 43 -93 45v-300c37 0 73 19 97 46l73 -79c-43 -47 -108 -67 -170 -69v-72h-54v72c-137 12 -222 118 -222 253c0 139 85 233 222 251v67h54zM274 90v299c-74 -15 -108 -76 -108 -149c0 -70 37 -132 108 -150z" />
    <glyph glyph-name="gcircumflex" unicode="&#x11d;" horiz-adv-x="632" 
d="M446 480h114v-437c0 -173 -84 -283 -271 -283c-78 0 -176 28 -238 79l69 93c46 -44 108 -68 168 -68c116 0 152 70 152 165v35h-2c-35 -47 -91 -72 -157 -72c-144 0 -237 114 -237 250c0 139 90 252 235 252c67 0 130 -28 165 -86h2v72zM304 396
c-87 0 -138 -68 -138 -153c0 -76 51 -152 137 -152c89 0 143 72 143 152c0 83 -55 153 -142 153zM507 564h-114l-69 90l-69 -90h-112l115 144h135z" />
    <glyph glyph-name="uogonek.sc" horiz-adv-x="595" 
d="M525 542v-339c0 -138 -102 -217 -228 -217s-227 79 -227 217v339h122v-330c0 -66 34 -116 105 -116c72 0 106 50 106 116v330h122zM380 -153l25 -49c-28 -22 -63 -38 -100 -38c-53 0 -103 31 -103 89c0 57 57 118 100 151h61c-31 -27 -83 -84 -83 -128
c0 -25 21 -46 46 -46c19 0 40 9 54 21z" />
    <glyph glyph-name="emacron.sc" horiz-adv-x="508" 
d="M76 0v542h374v-101h-252v-114h239v-96h-239v-127h265v-104h-387zM422 703v-78h-320v78h320z" />
    <glyph glyph-name="rcaron.sc" horiz-adv-x="529" 
d="M76 0v542h197c111 0 206 -44 206 -163c0 -78 -46 -131 -105 -150l129 -229h-144l-108 211h-53v-211h-122zM198 304h62c46 0 96 12 96 74c0 51 -44 65 -88 65h-70v-139zM81 738h114l69 -90l69 90h110l-115 -144h-133z" />
    <glyph glyph-name="registered" unicode="&#xae;" horiz-adv-x="600" 
d="M528 493c0 -125 -102 -224 -227 -224c-126 0 -229 99 -229 224c0 126 103 227 229 227c125 0 227 -101 227 -227zM492 493c0 107 -85 193 -191 193c-107 0 -193 -86 -193 -193c0 -105 86 -191 193 -191c106 0 191 86 191 191zM432 368h-83l-50 96h-29v-96h-71v260h112
c50 0 107 -20 107 -82c0 -35 -22 -61 -52 -71zM343 545c0 17 -19 25 -35 25h-38v-54h38c18 0 35 12 35 29z" />
    <glyph glyph-name="eth.sc" horiz-adv-x="623" 
d="M76 0v245h-67v82h67v215h205c152 0 298 -68 298 -270c0 -188 -150 -272 -302 -272h-201zM198 101h64c94 0 185 37 185 171c0 141 -89 171 -185 171h-64v-116h124v-82h-124v-144z" />
    <glyph glyph-name="Ecaron" unicode="&#x11a;" horiz-adv-x="610" 
d="M78 0v708h469v-110h-343v-180h325v-106h-325v-200h361v-112h-487zM135 908h114l69 -90l69 90h110l-115 -144h-133z" />
    <glyph glyph-name="ampersand.sc" horiz-adv-x="579" 
d="M554 282l-101 -151l127 -131h-156l-41 45c-41 -38 -86 -59 -160 -59c-96 0 -188 57 -188 160c0 78 47 123 108 154c-33 36 -51 69 -51 114c0 100 85 142 164 142c85 0 158 -45 158 -136c0 -70 -42 -115 -104 -146l67 -68l45 76h132zM256 462c-25 0 -48 -22 -48 -47
c0 -21 9 -44 36 -72c45 21 62 46 62 72s-20 47 -50 47zM310 119l-103 107c-31 -16 -52 -36 -52 -76c0 -38 30 -67 71 -67c38 0 67 15 84 36z" />
    <glyph glyph-name="rcaron" unicode="&#x159;" horiz-adv-x="364" 
d="M72 0v480h115v-80h2c26 55 77 94 140 94c9 0 21 -1 29 -3v-110c-16 4 -26 5 -37 5c-108 0 -129 -94 -129 -129v-257h-120zM29 708h114l69 -90l69 90h110l-115 -144h-133z" />
    <glyph glyph-name="eight.onum" horiz-adv-x="613" 
d="M554 195c0 -138 -116 -213 -247 -213c-132 0 -248 75 -248 213c0 91 59 155 132 177v2c-63 22 -109 79 -109 157c0 122 104 195 225 195c120 0 224 -71 224 -194c0 -76 -44 -137 -108 -158v-2c74 -20 131 -88 131 -177zM307 629c-61 0 -106 -44 -106 -104
c0 -59 45 -105 106 -105c59 0 106 46 106 105c0 60 -48 104 -106 104zM432 201c0 69 -52 121 -125 121c-74 0 -125 -51 -125 -121c0 -71 50 -121 125 -121c73 0 125 50 125 121z" />
    <glyph glyph-name="Jcircumflex" unicode="&#x134;" horiz-adv-x="498" 
d="M426 708v-479c0 -103 -36 -247 -213 -247c-114 0 -183 63 -208 156l116 33c12 -47 46 -76 90 -76c72 0 89 57 89 138v475h126zM544 764h-114l-69 90l-69 -90h-112l115 144h135z" />
    <glyph glyph-name="ncaron.sc" horiz-adv-x="634" 
d="M76 0v542h148l215 -374h2v374h117v-542h-148l-215 375h-2v-375h-117zM138 738h114l69 -90l69 90h110l-115 -144h-133z" />
    <glyph glyph-name="x.sc" horiz-adv-x="524" 
d="M0 0l186 287l-169 255h145l100 -167l99 167h138l-167 -258l192 -284h-151l-116 188l-112 -188h-145z" />
    <glyph glyph-name="Iacute" unicode="&#xcd;" horiz-adv-x="282" 
d="M78 0v708h126v-708h-126zM78 764l99 144h136l-141 -144h-94z" />
    <glyph glyph-name="Euro" unicode="&#x20ac;" horiz-adv-x="610" 
d="M543 121l41 -96c-39 -25 -105 -43 -176 -43c-182 0 -277 110 -309 240h-84l28 86h45c-1 15 -1 30 -1 44c0 16 1 34 3 48h-72l30 86h55c39 146 158 240 317 240c64 0 124 -14 160 -33l-38 -100c-31 19 -79 28 -128 28c-81 0 -163 -48 -190 -135h288l-28 -86h-279
c-2 -14 -3 -30 -3 -49c0 -12 0 -30 2 -43h256l-27 -86h-214c18 -75 93 -134 193 -134c51 0 93 10 131 33z" />
    <glyph glyph-name="threesuperior" unicode="&#xb3;" horiz-adv-x="400" 
d="M148 469v71h28c37 0 75 14 75 57c0 28 -24 45 -53 45c-28 0 -49 -22 -56 -53l-86 21c18 64 76 110 145 110c80 0 142 -38 142 -118c0 -39 -21 -74 -55 -93c42 -16 66 -52 66 -100c0 -91 -79 -132 -153 -132c-73 0 -135 32 -161 112l85 25c11 -33 34 -58 72 -58
c32 0 66 16 66 57c0 46 -49 56 -88 56h-27z" />
    <glyph glyph-name="breve.sc" 
d="M-40 738h67c9 -50 52 -66 103 -66c57 0 90 10 104 66h66c-10 -98 -76 -144 -171 -144s-163 44 -169 144z" />
    <glyph glyph-name="fl.sc" horiz-adv-x="917" 
d="M560 0v542h122v-435h221v-107h-343zM76 0v542h365v-103h-243v-128h229v-98h-229v-213h-122z" />
    <glyph glyph-name="dcaron.sc" horiz-adv-x="623" 
d="M76 0v542h205c152 0 298 -68 298 -270c0 -188 -150 -272 -302 -272h-201zM198 101h64c94 0 185 37 185 171c0 141 -89 171 -185 171h-64v-342zM109 738h114l69 -90l69 90h110l-115 -144h-133z" />
    <glyph glyph-name="agrave.sc" horiz-adv-x="582" 
d="M-2 0l235 542h117l234 -542h-136l-48 118h-223l-47 -118h-132zM215 214h148l-75 187zM250 738l99 -144h-94l-141 144h136z" />
    <glyph glyph-name="rcommaaccent.sc" horiz-adv-x="529" 
d="M76 0v542h197c111 0 206 -44 206 -163c0 -78 -46 -131 -105 -150l129 -229h-144l-108 211h-53v-211h-122zM198 304h62c46 0 96 12 96 74c0 51 -44 65 -88 65h-70v-139zM162 -240l65 195h106l-80 -195h-91z" />
    <glyph glyph-name="ydieresis" unicode="&#xff;" horiz-adv-x="513" 
d="M206 0l-206 480h133l134 -349h2l119 349h125l-227 -583c-34 -87 -76 -137 -182 -137c-20 0 -41 2 -62 7l10 104c16 -5 32 -7 45 -7c51 0 65 25 85 75zM98 644c0 37 30 70 71 70s73 -30 73 -70s-32 -70 -73 -70s-71 33 -71 70zM294 644c0 37 30 70 71 70s73 -30 73 -70
s-32 -70 -73 -70s-71 33 -71 70z" />
    <glyph glyph-name="Scommaaccent" unicode="&#x218;" horiz-adv-x="574" 
d="M521 650l-82 -90c-27 35 -80 61 -130 61c-58 0 -125 -28 -125 -97c0 -65 55 -84 135 -109c91 -28 207 -68 207 -207c0 -152 -119 -226 -258 -226c-92 0 -187 35 -243 101l90 84c35 -48 99 -78 155 -78c59 0 128 29 128 105c0 74 -74 95 -163 123c-86 27 -179 69 -179 201
c0 144 131 208 259 208c71 0 152 -25 206 -76zM177 -240l65 195h106l-80 -195h-91z" />
    <glyph glyph-name="ccaron" unicode="&#x10d;" horiz-adv-x="488" 
d="M482 419l-82 -72c-19 27 -60 47 -99 47c-88 0 -132 -79 -132 -154s45 -154 136 -154c37 0 78 15 101 43l75 -76c-40 -43 -106 -67 -177 -67c-142 0 -260 94 -260 254c0 156 116 254 257 254c70 0 143 -28 181 -75zM121 708h114l69 -90l69 90h110l-115 -144h-133z" />
    <glyph glyph-name="Iogonek" unicode="&#x12e;" horiz-adv-x="282" 
d="M78 0v708h126v-708h-13c-31 -29 -76 -81 -76 -122c0 -25 21 -46 46 -46c19 0 40 9 54 21l25 -49c-28 -22 -63 -38 -100 -38c-53 0 -103 31 -103 89c0 54 50 111 92 145h-51z" />
    <glyph glyph-name="u.sc" horiz-adv-x="595" 
d="M525 542v-339c0 -138 -102 -217 -228 -217s-227 79 -227 217v339h122v-330c0 -66 34 -116 105 -116c72 0 106 50 106 116v330h122z" />
    <glyph glyph-name="amacron" unicode="&#x101;" horiz-adv-x="550" 
d="M370 0v61h-3c-24 -42 -81 -73 -149 -73c-77 0 -180 37 -180 149c0 143 180 163 330 163v12c0 59 -50 88 -110 88c-51 0 -100 -24 -131 -55l-62 73c54 50 130 76 203 76c172 0 214 -106 214 -202v-292h-112zM368 202v17h-27c-76 0 -183 -9 -183 -80c0 -46 43 -60 84 -60
c82 0 126 47 126 123zM444 673v-78h-320v78h320z" />
    <glyph glyph-name="uacute.sc" horiz-adv-x="595" 
d="M525 542v-339c0 -138 -102 -217 -228 -217s-227 79 -227 217v339h122v-330c0 -66 34 -116 105 -116c72 0 106 50 106 116v330h122zM236 594l99 144h136l-141 -144h-94z" />
    <glyph glyph-name="dcroat" unicode="&#x111;" horiz-adv-x="634" 
d="M614 645v-75h-54v-570h-114v72h-2c-33 -55 -98 -86 -165 -86c-146 0 -236 116 -236 256c0 142 96 252 233 252c88 0 136 -44 161 -75h3v151h-170v75h170v111h120v-111h54zM165 242c0 -75 45 -156 138 -156c88 0 141 79 141 154s-53 156 -141 156
c-93 0 -138 -79 -138 -154z" />
    <glyph glyph-name="zero.onum" horiz-adv-x="706" 
d="M649 275c0 -172 -129 -289 -297 -289c-166 0 -295 117 -295 289c0 174 129 286 295 286c168 0 297 -112 297 -286zM525 275c0 102 -68 181 -173 181s-171 -79 -171 -181c0 -104 67 -183 171 -183c105 0 173 79 173 183z" />
    <glyph glyph-name="eacute.sc" horiz-adv-x="508" 
d="M76 0v542h374v-101h-252v-114h239v-96h-239v-127h265v-104h-387zM186 594l99 144h136l-141 -144h-94z" />
    <glyph glyph-name="dotlessj" horiz-adv-x="268" 
d="M74 480h120v-509c0 -115 -31 -211 -174 -211c-20 0 -42 3 -54 6l10 102c11 -3 24 -4 33 -4c57 0 65 47 65 102v514z" />
    <glyph glyph-name="atilde" unicode="&#xe3;" horiz-adv-x="550" 
d="M370 0v61h-3c-24 -42 -81 -73 -149 -73c-77 0 -180 37 -180 149c0 143 180 163 330 163v12c0 59 -50 88 -110 88c-51 0 -100 -24 -131 -55l-62 73c54 50 130 76 203 76c172 0 214 -106 214 -202v-292h-112zM368 202v17h-27c-76 0 -183 -9 -183 -80c0 -46 43 -60 84 -60
c82 0 126 47 126 123zM153 568h-66c11 64 37 127 112 127c27 0 55 -8 79 -18c26 -11 49 -19 65 -19c27 0 39 20 46 42h66c-11 -64 -37 -127 -112 -127c-28 0 -57 9 -82 20c-24 11 -46 18 -62 18c-27 0 -39 -21 -46 -43z" />
    <glyph glyph-name="eight.sc" horiz-adv-x="516" 
d="M258 556c101 0 182 -54 182 -151c0 -55 -28 -96 -71 -117v-2c52 -20 91 -67 91 -130c0 -111 -93 -170 -202 -170s-202 59 -202 170c0 63 38 110 91 130v2c-43 20 -71 63 -71 113c0 96 81 155 182 155zM258 238c-45 0 -80 -30 -80 -78s35 -77 80 -77c44 0 80 29 80 77
c0 47 -37 78 -80 78zM258 460c-37 0 -65 -25 -65 -65c0 -39 27 -64 65 -64c35 0 65 25 65 64c0 40 -31 65 -65 65z" />
    <glyph glyph-name="dieresis.sc" 
d="M-40 674c0 37 30 70 71 70s73 -30 73 -70s-32 -70 -73 -70s-71 33 -71 70zM156 674c0 37 30 70 71 70s73 -30 73 -70s-32 -70 -73 -70s-71 33 -71 70z" />
    <glyph glyph-name="edieresis.sc" horiz-adv-x="508" 
d="M76 0v542h374v-101h-252v-114h239v-96h-239v-127h265v-104h-387zM95 674c0 37 30 70 71 70s73 -30 73 -70s-32 -70 -73 -70s-71 33 -71 70zM291 674c0 37 30 70 71 70s73 -30 73 -70s-32 -70 -73 -70s-71 33 -71 70z" />
    <glyph glyph-name="caron.alt" 
d="M67 513l65 195h106l-80 -195h-91z" />
    <glyph glyph-name="Kcommaaccent" unicode="&#x136;" horiz-adv-x="689" 
d="M78 0v708h126v-306h3l296 306h170l-331 -327l353 -381h-177l-311 355h-3v-355h-126zM249 -240l65 195h106l-80 -195h-91z" />
    <glyph glyph-name="amacron.sc" horiz-adv-x="582" 
d="M-2 0l235 542h117l234 -542h-136l-48 118h-223l-47 -118h-132zM215 214h148l-75 187zM448 703v-78h-320v78h320z" />
    <glyph glyph-name="Ncommaaccent" unicode="&#x145;" horiz-adv-x="780" 
d="M78 0v708h167l329 -530h2v530h126v-708h-160l-336 547h-2v-547h-126zM289 -240l65 195h106l-80 -195h-91z" />
    <glyph glyph-name="ccedilla" unicode="&#xe7;" horiz-adv-x="488" 
d="M482 419l-82 -72c-19 27 -60 47 -99 47c-88 0 -132 -79 -132 -154s45 -154 136 -154c37 0 78 15 101 43l75 -76c-38 -41 -99 -64 -165 -67l-35 -50c8 1 14 1 19 1c50 0 105 -14 105 -83c0 -73 -76 -94 -136 -94c-40 0 -82 11 -110 26l23 48c25 -13 54 -20 82 -20
c22 0 57 6 57 41c0 30 -32 36 -53 36c-11 0 -27 -2 -39 -6l-23 25l54 79c-122 17 -216 107 -216 251c0 156 116 254 257 254c70 0 143 -28 181 -75z" />
    <glyph glyph-name="Itilde" unicode="&#x128;" horiz-adv-x="282" 
d="M78 0v708h126v-708h-126zM23 768h-66c11 64 37 127 112 127c27 0 55 -8 79 -18c26 -11 49 -19 65 -19c27 0 39 20 46 42h66c-11 -64 -37 -127 -112 -127c-28 0 -57 9 -82 20c-24 11 -46 18 -62 18c-27 0 -39 -21 -46 -43z" />
    <glyph glyph-name="thorn" unicode="&#xfe;" horiz-adv-x="635" 
d="M74 756h120v-337h3c25 31 73 75 161 75c137 0 233 -110 233 -252c0 -140 -90 -256 -236 -256c-67 0 -132 31 -159 80h-2v-294h-120v984zM469 242c0 75 -45 154 -138 154c-88 0 -141 -81 -141 -156s53 -154 141 -154c93 0 138 81 138 156z" />
    <glyph glyph-name="brokenbar" unicode="&#xa6;" horiz-adv-x="222" 
d="M60 675h102v-350h-102v350zM60 175h102v-350h-102v350z" />
    <glyph glyph-name="ccircumflex.sc" horiz-adv-x="565" 
d="M546 466l-93 -77c-26 37 -67 58 -115 58c-96 0 -160 -70 -160 -174c0 -100 64 -175 159 -175c52 0 92 21 123 64l96 -73c-44 -60 -110 -103 -223 -103c-175 0 -289 113 -289 287c0 173 129 283 297 283c81 0 157 -29 205 -90zM522 594h-114l-69 90l-69 -90h-112l115 144
h135z" />
    <glyph glyph-name="Eogonek" unicode="&#x118;" horiz-adv-x="610" 
d="M78 0v708h469v-110h-343v-180h325v-106h-325v-200h361v-112h-26c-31 -29 -76 -81 -76 -122c0 -25 21 -46 46 -46c19 0 40 9 54 21l25 -49c-28 -22 -63 -38 -100 -38c-53 0 -103 31 -103 89c0 54 50 111 92 145h-399z" />
    <glyph glyph-name="eacute" unicode="&#xe9;" horiz-adv-x="574" 
d="M164 288h246c0 62 -35 116 -113 116c-71 0 -128 -49 -133 -116zM530 234c0 -11 0 -21 -1 -32h-365c5 -68 67 -118 137 -118c60 0 100 24 127 62l80 -64c-47 -64 -115 -96 -206 -96c-148 0 -258 95 -258 251c0 155 109 257 254 257c134 0 232 -87 232 -260zM231 564
l99 144h136l-141 -144h-94z" />
    <glyph glyph-name="g.sc" horiz-adv-x="615" 
d="M560 316v-284c-59 -29 -130 -46 -215 -46c-178 0 -301 117 -301 287c0 173 128 283 297 283c93 0 166 -26 216 -72l-85 -93c-28 35 -79 56 -130 56c-103 0 -164 -72 -164 -174c0 -103 68 -177 172 -177c35 0 63 5 89 15v111h-110v94h231z" />
    <glyph glyph-name="Eth" unicode="&#xd0;" horiz-adv-x="764" 
d="M79 0v324h-66v84h66v300h279c186 0 360 -114 360 -354c0 -242 -205 -354 -375 -354h-264zM205 114h94c158 0 287 68 287 240s-112 240 -266 240h-115v-186h216v-84h-216v-210z" />
    <glyph glyph-name="Lcommaaccent" unicode="&#x13b;" horiz-adv-x="511" 
d="M78 0v708h126v-596h301v-112h-427zM187 -240l65 195h106l-80 -195h-91z" />
    <glyph glyph-name="ecaron.sc" horiz-adv-x="508" 
d="M76 0v542h374v-101h-252v-114h239v-96h-239v-127h265v-104h-387zM85 738h114l69 -90l69 90h110l-115 -144h-133z" />
    <glyph glyph-name="estimated" unicode="&#x212e;" horiz-adv-x="604" 
d="M561 259h-404v-181c39 -39 87 -59 145 -59c83 0 143 36 193 120l35 -21c-61 -95 -123 -135 -228 -135c-157 0 -258 122 -258 276c0 155 101 276 258 276c154 0 258 -114 259 -276zM157 295h291v145c-42 40 -91 60 -147 60c-57 0 -105 -21 -144 -60v-145z" />
    <glyph glyph-name="eogonek.sc" horiz-adv-x="508" 
d="M76 0v542h374v-101h-252v-114h239v-96h-239v-127h265v-104h-387zM461 -153l25 -49c-28 -22 -63 -38 -100 -38c-53 0 -103 31 -103 89c0 57 57 118 100 151h61c-31 -27 -83 -84 -83 -128c0 -25 21 -46 46 -46c19 0 40 9 54 21z" />
    <glyph glyph-name="lcommaaccent.sc" horiz-adv-x="433" 
d="M76 0v542h122v-435h221v-107h-343zM141 -240l65 195h106l-80 -195h-91z" />
    <glyph glyph-name="edieresis" unicode="&#xeb;" horiz-adv-x="574" 
d="M164 288h246c0 62 -35 116 -113 116c-71 0 -128 -49 -133 -116zM530 234c0 -11 0 -21 -1 -32h-365c5 -68 67 -118 137 -118c60 0 100 24 127 62l80 -64c-47 -64 -115 -96 -206 -96c-148 0 -258 95 -258 251c0 155 109 257 254 257c134 0 232 -87 232 -260zM130 644
c0 37 30 70 71 70s73 -30 73 -70s-32 -70 -73 -70s-71 33 -71 70zM326 644c0 37 30 70 71 70s73 -30 73 -70s-32 -70 -73 -70s-71 33 -71 70z" />
    <glyph glyph-name="ae.sc" horiz-adv-x="857" 
d="M799 542v-101h-252v-114h239v-96h-239v-127h265v-104h-387v125h-206l-76 -125h-147l342 542h461zM276 219h149v224h-13z" />
    <glyph glyph-name="ccaron.sc" horiz-adv-x="565" 
d="M546 466l-93 -77c-26 37 -67 58 -115 58c-96 0 -160 -70 -160 -174c0 -100 64 -175 159 -175c52 0 92 21 123 64l96 -73c-44 -60 -110 -103 -223 -103c-175 0 -289 113 -289 287c0 173 129 283 297 283c81 0 157 -29 205 -90zM157 738h114l69 -90l69 90h110l-115 -144
h-133z" />
    <glyph glyph-name="ecircumflex" unicode="&#xea;" horiz-adv-x="574" 
d="M164 288h246c0 62 -35 116 -113 116c-71 0 -128 -49 -133 -116zM530 234c0 -11 0 -21 -1 -32h-365c5 -68 67 -118 137 -118c60 0 100 24 127 62l80 -64c-47 -64 -115 -96 -206 -96c-148 0 -258 95 -258 251c0 155 109 257 254 257c134 0 232 -87 232 -260zM484 564h-114
l-69 90l-69 -90h-112l115 144h135z" />
    <glyph glyph-name="v.sc" horiz-adv-x="528" 
d="M210 0l-214 542h132l136 -381h4l138 381h126l-217 -542h-105z" />
    <glyph glyph-name="thorn.sc" horiz-adv-x="500" 
d="M76 0v542h119v-85h73c142 0 202 -62 202 -162c0 -103 -80 -164 -210 -164h-65v-131h-119zM195 226h59c72 0 95 27 95 68s-23 64 -91 64h-63v-132z" />
    <glyph glyph-name="ring.cap" 
d="M235 855c0 -59 -46 -102 -105 -102s-105 43 -105 101c0 59 45 103 105 103c59 0 105 -43 105 -102zM189 855c0 33 -26 57 -59 57c-34 0 -59 -25 -59 -58c0 -32 26 -56 59 -56s59 24 59 57z" />
    <glyph glyph-name="emacron" unicode="&#x113;" horiz-adv-x="574" 
d="M164 288h246c0 62 -35 116 -113 116c-71 0 -128 -49 -133 -116zM530 234c0 -11 0 -21 -1 -32h-365c5 -68 67 -118 137 -118c60 0 100 24 127 62l80 -64c-47 -64 -115 -96 -206 -96c-148 0 -258 95 -258 251c0 155 109 257 254 257c134 0 232 -87 232 -260zM459 673v-78
h-320v78h320z" />
    <glyph glyph-name="e.sc" horiz-adv-x="508" 
d="M76 0v542h374v-101h-252v-114h239v-96h-239v-127h265v-104h-387z" />
    <glyph glyph-name="abreve.sc" horiz-adv-x="582" 
d="M-2 0l235 542h117l234 -542h-136l-48 118h-223l-47 -118h-132zM215 214h148l-75 187zM119 738h67c9 -50 52 -66 103 -66c57 0 90 10 104 66h66c-10 -98 -76 -144 -171 -144s-163 44 -169 144z" />
    <glyph glyph-name="adieresis.sc" horiz-adv-x="582" 
d="M-2 0l235 542h117l234 -542h-136l-48 118h-223l-47 -118h-132zM215 214h148l-75 187zM121 674c0 37 30 70 71 70s73 -30 73 -70s-32 -70 -73 -70s-71 33 -71 70zM317 674c0 37 30 70 71 70s73 -30 73 -70s-32 -70 -73 -70s-71 33 -71 70z" />
    <glyph glyph-name="ccircumflex" unicode="&#x109;" horiz-adv-x="488" 
d="M482 419l-82 -72c-19 27 -60 47 -99 47c-88 0 -132 -79 -132 -154s45 -154 136 -154c37 0 78 15 101 43l75 -76c-40 -43 -106 -67 -177 -67c-142 0 -260 94 -260 254c0 156 116 254 257 254c70 0 143 -28 181 -75zM483 564h-114l-69 90l-69 -90h-112l115 144h135z" />
    <glyph glyph-name="five.sc" horiz-adv-x="516" 
d="M425 542v-99h-209l-6 -92c17 4 38 7 53 7c109 0 191 -65 191 -179c0 -116 -82 -193 -205 -193c-96 0 -167 52 -194 133l107 39c12 -46 47 -74 87 -74c49 0 86 33 86 88c0 69 -50 92 -102 92c-37 0 -97 -16 -140 -38l17 316h315z" />
    <glyph glyph-name="ecircumflex.sc" horiz-adv-x="508" 
d="M76 0v542h374v-101h-252v-114h239v-96h-239v-127h265v-104h-387zM445 594h-114l-69 90l-69 -90h-112l115 144h135z" />
    <glyph glyph-name="circumflex.cap" 
d="M312 764h-114l-69 90l-69 -90h-112l115 144h135z" />
    <glyph glyph-name="commaaccent" 
d="M43 -240l65 195h106l-80 -195h-91z" />
    <glyph glyph-name="ycircumflex" unicode="&#x177;" horiz-adv-x="513" 
d="M206 0l-206 480h133l134 -349h2l119 349h125l-227 -583c-34 -87 -76 -137 -182 -137c-20 0 -41 2 -62 7l10 104c16 -5 32 -7 45 -7c51 0 65 25 85 75zM448 564h-114l-69 90l-69 -90h-112l115 144h135z" />
    <glyph glyph-name="Nacute" unicode="&#x143;" horiz-adv-x="780" 
d="M78 0v708h167l329 -530h2v530h126v-708h-160l-336 547h-2v-547h-126zM309 764l99 144h136l-141 -144h-94z" />
    <glyph glyph-name="rcommaaccent" unicode="&#x157;" horiz-adv-x="364" 
d="M72 0v480h115v-80h2c26 55 77 94 140 94c9 0 21 -1 29 -3v-110c-16 4 -26 5 -37 5c-108 0 -129 -94 -129 -129v-257h-120zM28 -240l65 195h106l-80 -195h-91z" />
    <glyph glyph-name="cacute.sc" horiz-adv-x="565" 
d="M546 466l-93 -77c-26 37 -67 58 -115 58c-96 0 -160 -70 -160 -174c0 -100 64 -175 159 -175c52 0 92 21 123 64l96 -73c-44 -60 -110 -103 -223 -103c-175 0 -289 113 -289 287c0 173 129 283 297 283c81 0 157 -29 205 -90zM249 594l99 144h136l-141 -144h-94z" />
    <glyph glyph-name="egrave" unicode="&#xe8;" horiz-adv-x="574" 
d="M164 288h246c0 62 -35 116 -113 116c-71 0 -128 -49 -133 -116zM530 234c0 -11 0 -21 -1 -32h-365c5 -68 67 -118 137 -118c60 0 100 24 127 62l80 -64c-47 -64 -115 -96 -206 -96c-148 0 -258 95 -258 251c0 155 109 257 254 257c134 0 232 -87 232 -260zM260 708
l99 -144h-94l-141 144h136z" />
    <glyph glyph-name="breve.cap" 
d="M-40 908h67c9 -50 52 -66 103 -66c57 0 90 10 104 66h66c-10 -98 -76 -144 -171 -144s-163 44 -169 144z" />
    <glyph glyph-name="tcommaaccent" unicode="&#x163;" horiz-adv-x="340" 
d="M87 384h-84v96h84v139h118v-139h120v-96h-120v-223c0 -43 10 -74 63 -74c16 0 37 3 51 10l4 -94c-21 -8 -53 -13 -80 -13c-127 0 -156 78 -156 170v224zM98 -240l65 195h106l-80 -195h-91z" />
    <glyph glyph-name="dcaron" unicode="&#x10f;" horiz-adv-x="720" 
d="M560 756v-756h-114v72h-2c-33 -55 -98 -86 -165 -86c-146 0 -236 116 -236 256c0 142 96 252 233 252c88 0 136 -44 161 -75h3v337h120zM165 242c0 -75 45 -156 138 -156c88 0 141 79 141 154s-53 156 -141 156c-93 0 -138 -79 -138 -154zM587 513l65 195h106l-80 -195
h-91z" />
    <glyph glyph-name="gbreve" unicode="&#x11f;" horiz-adv-x="632" 
d="M446 480h114v-437c0 -173 -84 -283 -271 -283c-78 0 -176 28 -238 79l69 93c46 -44 108 -68 168 -68c116 0 152 70 152 165v35h-2c-35 -47 -91 -72 -157 -72c-144 0 -237 114 -237 250c0 139 90 252 235 252c67 0 130 -28 165 -86h2v72zM304 396
c-87 0 -138 -68 -138 -153c0 -76 51 -152 137 -152c89 0 143 72 143 152c0 83 -55 153 -142 153zM143 708h67c9 -50 52 -66 103 -66c57 0 90 10 104 66h66c-10 -98 -76 -144 -171 -144s-163 44 -169 144z" />
    <glyph glyph-name="edotaccent.sc" horiz-adv-x="508" 
d="M76 0v542h374v-101h-252v-114h239v-96h-239v-127h265v-104h-387zM192 673c0 38 32 72 76 72s78 -31 78 -72s-34 -72 -78 -72s-76 34 -76 72z" />
    <glyph glyph-name="six.sc" horiz-adv-x="516" 
d="M235 542h144l-140 -198l2 -2c16 6 34 9 50 9c95 0 173 -63 173 -171c0 -116 -93 -194 -207 -194c-116 0 -205 79 -205 191c0 63 25 121 65 182zM173 175c0 -54 39 -87 86 -87s86 35 86 89c0 53 -39 86 -86 86s-86 -33 -86 -88z" />
    <glyph glyph-name="egrave.sc" horiz-adv-x="508" 
d="M76 0v542h374v-101h-252v-114h239v-96h-239v-127h265v-104h-387zM266 738l99 -144h-94l-141 144h136z" />
    <glyph glyph-name="c.sc" horiz-adv-x="565" 
d="M546 466l-93 -77c-26 37 -67 58 -115 58c-96 0 -160 -70 -160 -174c0 -100 64 -175 159 -175c52 0 92 21 123 64l96 -73c-44 -60 -110 -103 -223 -103c-175 0 -289 113 -289 287c0 173 129 283 297 283c81 0 157 -29 205 -90z" />
    <glyph glyph-name="circumflex.sc" 
d="M312 594h-114l-69 90l-69 -90h-112l115 144h135z" />
    <glyph glyph-name="degree" unicode="&#xb0;" horiz-adv-x="400" 
d="M40 560c0 88 72 160 160 160s160 -72 160 -160s-72 -160 -160 -160s-160 72 -160 160zM118 560c0 -45 37 -82 82 -82s82 37 82 82s-37 82 -82 82s-82 -37 -82 -82z" />
    <glyph glyph-name="t.sc" horiz-adv-x="446" 
d="M162 0v439h-158v103h438v-103h-158v-439h-122z" />
    <glyph glyph-name="dieresis.cap" 
d="M-40 844c0 37 30 70 71 70s73 -30 73 -70s-32 -70 -73 -70s-71 33 -71 70zM156 844c0 37 30 70 71 70s73 -30 73 -70s-32 -70 -73 -70s-71 33 -71 70z" />
    <glyph glyph-name="sacute.sc" horiz-adv-x="492" 
d="M448 474l-83 -79c-23 32 -66 59 -113 59c-41 0 -82 -15 -82 -56s39 -53 111 -71c76 -19 166 -55 166 -160c0 -131 -102 -181 -214 -181c-79 0 -162 31 -211 88l85 86c27 -38 76 -67 131 -67c38 0 82 14 82 61c0 45 -39 58 -117 77c-76 19 -152 52 -152 153
c0 120 103 172 204 172c74 0 151 -27 193 -82zM169 594l99 144h136l-141 -144h-94z" />
    <glyph glyph-name="caron.sc" 
d="M-51 738h114l69 -90l69 90h110l-115 -144h-133z" />
    <glyph glyph-name="cacute" unicode="&#x107;" horiz-adv-x="488" 
d="M482 419l-82 -72c-19 27 -60 47 -99 47c-88 0 -132 -79 -132 -154s45 -154 136 -154c37 0 78 15 101 43l75 -76c-40 -43 -106 -67 -177 -67c-142 0 -260 94 -260 254c0 156 116 254 257 254c70 0 143 -28 181 -75zM229 564l99 144h136l-141 -144h-94z" />
    <glyph glyph-name="copyright" unicode="&#xa9;" horiz-adv-x="800" 
d="M577 506l-63 -63c-19 24 -57 42 -96 42c-81 0 -124 -65 -124 -132c0 -69 45 -135 131 -135c35 0 72 14 93 38l58 -68c-35 -39 -94 -60 -158 -60c-127 0 -230 79 -230 223c0 140 104 224 230 224c63 0 125 -25 159 -69zM20 353c0 210 171 377 381 377
c209 0 379 -167 379 -377c0 -209 -170 -375 -379 -375c-210 0 -381 166 -381 375zM80 353c0 -176 144 -319 321 -319c176 0 319 143 319 319c0 177 -143 321 -319 321c-177 0 -321 -144 -321 -321z" />
    <glyph glyph-name="d.sc" horiz-adv-x="623" 
d="M76 0v542h205c152 0 298 -68 298 -270c0 -188 -150 -272 -302 -272h-201zM198 101h64c94 0 185 37 185 171c0 141 -89 171 -185 171h-64v-342z" />
    <glyph glyph-name="cdotaccent.sc" horiz-adv-x="565" 
d="M546 466l-93 -77c-26 37 -67 58 -115 58c-96 0 -160 -70 -160 -174c0 -100 64 -175 159 -175c52 0 92 21 123 64l96 -73c-44 -60 -110 -103 -223 -103c-175 0 -289 113 -289 287c0 173 129 283 297 283c81 0 157 -29 205 -90zM260 673c0 38 32 72 76 72s78 -31 78 -72
s-34 -72 -78 -72s-76 34 -76 72z" />
    <glyph glyph-name="f.sc" horiz-adv-x="484" 
d="M76 0v542h365v-103h-243v-128h229v-98h-229v-213h-122z" />
    <glyph glyph-name="gcommaaccent" unicode="&#x123;" horiz-adv-x="632" 
d="M446 480h114v-437c0 -173 -84 -283 -271 -283c-78 0 -176 28 -238 79l69 93c46 -44 108 -68 168 -68c116 0 152 70 152 165v35h-2c-35 -47 -91 -72 -157 -72c-144 0 -237 114 -237 250c0 139 90 252 235 252c67 0 130 -28 165 -86h2v72zM304 396
c-87 0 -138 -68 -138 -153c0 -76 51 -152 137 -152c89 0 143 72 143 152c0 83 -55 153 -142 153zM400 759l-65 -195h-106l80 195h91z" />
    <glyph glyph-name="commaaccent.alt" 
d="M217 759l-65 -195h-106l80 195h91z" />
    <glyph glyph-name="tcaron.sc" horiz-adv-x="446" 
d="M162 0v439h-158v103h438v-103h-158v-439h-122zM43 738h114l69 -90l69 90h110l-115 -144h-133z" />
    <glyph glyph-name="gdotaccent.sc" horiz-adv-x="615" 
d="M560 316v-284c-59 -29 -130 -46 -215 -46c-178 0 -301 117 -301 287c0 173 128 283 297 283c93 0 166 -26 216 -72l-85 -93c-28 35 -79 56 -130 56c-103 0 -164 -72 -164 -174c0 -103 68 -177 172 -177c35 0 63 5 89 15v111h-110v94h231zM268 673c0 38 32 72 76 72
s78 -31 78 -72s-34 -72 -78 -72s-76 34 -76 72z" />
    <glyph glyph-name="gcommaaccent.sc" horiz-adv-x="615" 
d="M560 316v-284c-59 -29 -130 -46 -215 -46c-178 0 -301 117 -301 287c0 173 128 283 297 283c93 0 166 -26 216 -72l-85 -93c-28 35 -79 56 -130 56c-103 0 -164 -72 -164 -174c0 -103 68 -177 172 -177c35 0 63 5 89 15v111h-110v94h231zM234 -240l65 195h106l-80 -195
h-91z" />
    <glyph glyph-name="gcircumflex.sc" horiz-adv-x="615" 
d="M560 316v-284c-59 -29 -130 -46 -215 -46c-178 0 -301 117 -301 287c0 173 128 283 297 283c93 0 166 -26 216 -72l-85 -93c-28 35 -79 56 -130 56c-103 0 -164 -72 -164 -174c0 -103 68 -177 172 -177c35 0 63 5 89 15v111h-110v94h231zM529 594h-114l-69 90l-69 -90
h-112l115 144h135z" />
    <glyph glyph-name="space" unicode=" " horiz-adv-x="250" 
 />
    <glyph glyph-name=".null" horiz-adv-x="500" 
 />
    <glyph glyph-name=".null" horiz-adv-x="500" 
 />
    </font>
</defs>
</svg>
